Ссылка на приватное зеркало всего за 1$. Внимание количество ограничено!!!

OK

1+1

iTunes

мы

OK

1

WEB-DLRip

Джокер

Пифагор

Ведьмак / The Witcher сериал

iTunes

ПШазам

ОК

Оно 2

iTunes

30
pack

Вам бонус

ВАЖНО

!!Акция!!

Alien_RageХит недели

RePack

Resident Evil 21

ИГРА 18+

pack

RePack

jed

RePack

fifa19

RePack

Assassins Creed: Odyssey

RePack

NEED FOR SPEED™ PAYBACK

4 сезон

9 сезон

Бесстыжие 9 сезон

Все сериалы

все сериалы на PB.wtf

RePack

FAR CRY 5
  

Джей и молчаливый Боб: Перезагрузка / Jay and Silent Bob Reboot (Кевин Смит) [2019, Комедия, BDRip 1080p] MVO [HDrezka Studio] pb.wtf

Джей и молчаливый Боб: Перезагрузка через торрент pb.wtf

Раздают: 25 [ 3 MB/s ]
Размер: 10.33 GB | Добавлен: 12 д. назад | Торрент скачан:199 раз
Скачать  

10-01-2020 09:20 Джей и молчаливый Боб: Перезагрузка Скачать торрент  

Джей и молчаливый Боб: Перезагрузка | Jay and Silent Bob Reboot
Год выпуска: 2019
Страна: США
Студия: Destro Films, SModcast Pictures, Hideout Pictures, Miramax Films, Intercut Capital
Жанр: Комедия
Продолжительность: 01:45:19
Перевод: Профессиональный (многоголосый) | HDrezka Studio
Субтитры: Русские (Fullx2), Английские (Full)

Режиссер: Кевин Смит

rating


В ролях: Джейсон Мьюз, Кевин Смит, Мэтт Дэймон, Крис Хемсворт, Бен Аффлек, Мелисса Бенойст, Вэл Килмер, Розарио Доусон, Джо Манганьелло, Джеймс Ван Дер Бик

Описание: Неугомонные приятели Джей и молчаливый Боб отправляются в Голливуд, когда узнают, что студия готовит новую экранизацию комикса о Пыхаре и Хронике, прототипами которых стали они сами.

Качество: BDRip 1080p
Формат: MKV

Видео: AVC/H.264, 1920x804, ~12,1 Мbps, 23.976 fps
Аудио 1: AC3, 6 ch, 448 Kbps - Русский
Аудио 2: DTS, 6 ch, 1509 Kbps - Английский
скриншот  скриншот  скриншот  скриншот  

Общее
Уникальный идентификатор : 41512892572072516951603005265743222641 (0x1F3B17A03436FA25A1EEFB025D4C9771)
Полное имя : Jay and Silent Bob Reboot.2019.BDRip.1080p.mkv
Формат : Matroska
Версия формата : Version 4
Размер файла : 10,3 Гбайт
Продолжительность : 1 ч. 45 м.
Общий поток : 14,0 Мбит/сек
Название фильма : Jay and Silent Bob Reboot.2019.BDRip.1080p
Дата кодирования : UTC 2020-01-16 22:01:32
Программа кодирования : mkvmerge v23.0.0 ('The Bride Said No') 64-bit
Библиотека кодирования : libebml v1.3.6 + libmatroska v1.4.9

Видео
Идентификатор : 1
Формат : AVC
Формат/Информация : Advanced Video Codec
Профиль формата : High@L4.1
Настройки формата : CABAC / 4 Ref Frames
Параметр CABAC формата : Да
Параметр RefFrames формата : 4 кадра
Идентификатор кодека : V_MPEG4/ISO/AVC
Продолжительность : 1 ч. 45 м.
Битрейт : 12,1 Мбит/сек
Ширина : 1920 пикселей
Высота : 804 пикселя
Соотношение сторон : 2,40:1
Режим частоты кадров : Постоянный
Частота кадров : 23,976 (24000/1001) кадра/сек
Цветовое пространство : YUV
Субдискретизация насыщенности : 4:2:0
Битовая глубина : 8 бит
Тип развёртки : Прогрессивная
Бит/(Пиксели*Кадры) : 0.326
Размер потока : 8,89 Гбайт (86%)
Заголовок : CHD
Библиотека кодирования : x264 core 157 r2867+150 7e91e0e t_mod_Custom_2 [8-bit@all X86_64]
Настройки программы : cabac=1 / ref=4 / deblock=1:-3:-3 / analyse=0x3:0x133 / me=umh / subme=11 / psy=1 / fade_compensate=0.00 / psy_rd=0.90:0.10 / mixed_ref=1 / me_range=64 / chroma_me=1 / trellis=2 / 8x8dct=1 / cqm=0 / deadzone=21,11 / fast_pskip=0 / chroma_qp_offset=-4 / threads=25 / lookahead_threads=4 / sliced_threads=0 / nr=0 / decimate=1 / interlaced=0 / bluray_compat=0 / constrained_intra=0 / fgo=0 / bframes=8 / b_pyramid=2 / b_adapt=2 / b_bias=0 / direct=3 / weightb=1 / open_gop=0 / weightp=2 / keyint=250 / keyint_min=24 / scenecut=40 / intra_refresh=0 / rc_lookahead=60 / rc=crf / mbtree=0 / crf=18.0000 / qcomp=0.70 / qpmin=0:0:0 / qpmax=69:69:69 / qpstep=4 / vbv_maxrate=35000 / vbv_bufsize=35000 / crf_max=0.0 / nal_hrd=none / filler=0 / ip_ratio=1.40 / pb_ratio=1.30 / aq=3:1.00 / aq-sensitivity=10.00 / aq-factor=1.00:1.00:1.00 / aq2=0 / aq3=0
Язык : English
Default : Да
Forced : Нет

Аудио #1
Идентификатор : 2
Формат : AC-3
Формат/Информация : Audio Coding 3
Коммерческое название : Dolby Digital
Идентификатор кодека : A_AC3
Продолжительность : 1 ч. 45 м.
Вид битрейта : Постоянный
Битрейт : 448 Кбит/сек
Каналы : 6 каналов
ChannelLayout : L R C LFE Ls Rs
Частота : 48,0 КГц
Частота кадров : 31,250 кадров/сек (1536 SPF)
Метод сжатия : С потерями
Размер потока : 337 Мбайт (3%)
Заголовок : MVO (HDRezka Studio)
Язык : Russian
ServiceKind : Complete Main
Default : Да
Forced : Нет

Аудио #2
Идентификатор : 3
Формат : DTS
Формат/Информация : Digital Theater Systems
Идентификатор кодека : A_DTS
Продолжительность : 1 ч. 45 м.
Вид битрейта : Постоянный
Битрейт : 1509 Кбит/сек
Каналы : 6 каналов
ChannelLayout : C L R Ls Rs LFE
Частота : 48,0 КГц
Частота кадров : 93,750 кадра/сек (512 SPF)
Битовая глубина : 24 бит
Метод сжатия : С потерями
Размер потока : 1,11 Гбайт (11%)
Язык : English
Default : Нет
Forced : Нет

Текст #1
Идентификатор : 4
Формат : UTF-8
Идентификатор кодека : S_TEXT/UTF8
Идентификатор кодека/Информация : UTF-8 Plain Text
Продолжительность : 1 ч. 43 м.
Битрейт : 151 бит/сек
ElementCount : 1923
Размер потока : 115 Кбайт (0%)
Заголовок : Sevkoxdd
Язык : Russian
Default : Нет
Forced : Нет

Текст #2
Идентификатор : 5
Формат : UTF-8
Идентификатор кодека : S_TEXT/UTF8
Идентификатор кодека/Информация : UTF-8 Plain Text
Продолжительность : 1 ч. 44 м.
Битрейт : 134 бит/сек
ElementCount : 1875
Размер потока : 103 Кбайт (0%)
Язык : Russian
Default : Нет
Forced : Нет

Текст #3
Идентификатор : 6
Формат : UTF-8
Идентификатор кодека : S_TEXT/UTF8
Идентификатор кодека/Информация : UTF-8 Plain Text
Продолжительность : 1 ч. 43 м.
Битрейт : 87 бит/сек
ElementCount : 1886
Размер потока : 66,3 Кбайт (0%)
Заголовок : Full
Язык : English
Default : Нет
Forced : Нет

Меню
00:00:00.000 : en:Chapter 01
00:03:38.676 : en:Chapter 02
00:09:30.653 : en:Chapter 03
00:16:32.658 : en:Chapter 04
00:24:10.323 : en:Chapter 05
00:30:43.633 : en:Chapter 06
00:40:34.014 : en:Chapter 07
00:44:53.941 : en:Chapter 08
00:48:46.715 : en:Chapter 09
00:54:34.020 : en:Chapter 10
00:59:27.146 : en:Chapter 11
01:07:03.227 : en:Chapter 12
01:10:01.697 : en:Chapter 13
01:16:08.480 : en:Chapter 14
01:25:37.215 : en:Chapter 15
01:32:39.762 : en:Chapter 16

pb.wtf



Скачать Джей и молчаливый Боб: Перезагрузка через торрент http://c.radikal.ru/c34/2001/28/7cc9e7bb9991.jpg Скачать фильм Джей и молчаливый Боб: Перезагрузка через торрент бесплантно в хорошем качестве Описание: Неугомонные приятели Джей и молчаливый Боб отправляются в Голливуд, когда узнают, что готовит новую экранизацию комикса о ... 9.9 10 16
Info! Золотая раздача, скачанное не засчитывается.
Торрент: Зарегистрирован [2020-01-16 23:42] · скачан: 199 раз
Статус: √ проверено
Размер: 10.33 GB
Как cкачать? Как скачать Джей и молчаливый Боб: Перезагрузка через торрент | qTorrent

% Раздел Тема Автор DL S | L
Фильмы 2019-2020 [DVDrip, WEB-DLRip, HDrip] (DUB, MVO) [ 1.46 GB ] Джей и молчаливый Боб: Перезагрузка / Jay and Silent Bob Reboot [2019 BDRip] MVO [HDrezka Studio] bober100 Скачать
48 | 0
# Фильмы [HD 720p, 1080p] (Хороший звук DUB, MVO) [ 3.9 GB ] Джей и молчаливый Боб: Перезагрузка / Jay and Silent Bob Reboot [2019 BDRip 720p] MVO [HDrezka Studio] bober100 Скачать
32 | 0


Последний раз редактировалось: bober100 (2020-01-16 23:42), всего редактировалось 3 раз(а)

28-11-2019 20:33  

Отключить всю рекламу на сайте

    Дорогой пользователь! Огромная просьба, поблагодарите релизера, оцените раздачу и оставьте свои комментарий, если Вы скачали Джей и молчаливый Боб: Перезагрузка через торрент бесплатно! Внесите свою лепту в развитие PiratBit!
    Комментировать посты могут только пользователи прошедшие не сложную регистрацию
    Показать сообщения:    

    Джей и молчаливый Боб: Перезагрузка через торрент
    Скачать бесплатно Джей и молчаливый Боб: Перезагрузка
    Джей и молчаливый Боб: Перезагрузка скачать торрент
    Джей и молчаливый Боб: Перезагрузка смотреть онлайн
    Cкачать фильм Джей и молчаливый Боб: Перезагрузка бесплатно
    Джей и молчаливый Боб: Перезагрузка скачать торрент в хорошем качестве
    Джей и молчаливый Боб: Перезагрузка смотреть онлайн бесплатно в хорошем качестве


    Вы не можете начинать темы
    Вы не можете отвечать на сообщения
    Вы не можете редактировать свои сообщения
    Вы не можете удалять свои сообщения
    Вы не можете голосовать в опросах
    Вы не можете прикреплять файлы к сообщениям
    Вы можете скачивать файлы