2 сезон

iTunes

MVO

1

2 сезон

iTunes

iTunes

1 сезон

RePack

30

Новинка

ВАЖНО

ИГРА 18+

pack

RePack

MK11
pack

Легкие деньги

RePack

jed

RePack

fifa19

RePack

RDR2

RePack

NEED FOR SPEED™ PAYBACK

4 сезон

9 сезон

Бесстыжие 9 сезон

Все сериалы

все сериалы на PB.wtf

RePack

FAR CRY 5

Anonymous, доброй ночи, мы не успеваем собрать деньги на оплату серверов за декабрь и январь, помогите нам пожалуйста в это трудное время. В качестве благодарности мы отключим Вам всю рекламу на сайте (укажите свой ник в строку Ваше имя)!

×
  
Magnet ссылка

Джеймс Понт в 3Д / Torrente 4 3D (Сантьяго Сегура / Santiago Segura) [2011, комедия, криминал, боевик, BDRip, 1080p] OverUnder / Вертикальная стереопара (VO) pb.wtf

Джеймс Понт в 3Д через торрент pb.wtf

Размер: 19.59 GB | Добавлен: 1 год назад | Торрент скачан:4 раза
Скачать  

10-01-2020 16:01 Джеймс Понт в 3Д Скачать торрент  

Джеймс Понт / Torrente 4

Год выпуска: 2011
Страна: Испания
Жанр: комедия, криминал, боевик
Продолжительность: 01:36:45

Перевод: Одноголосый закадровый - Kenum [Владислав Данилов] (перевод - postal98 [Вадим Юсупов])
Русские субтитры: нет
Режиссер: Сантьяго Сегура / Santiago Segura

В ролях: Сантьяго Сегура, Карлос Арэсес, Гойо Хименес, Хавьер Гутиеррез, Эрнесто Севилья, Мария Лапьедра, Франциско, Томаш Поцци, Fernando Esteso, Кико Ривера и др.

Описание: Похождения любимого народного героя и циничного подонка в одном лице. Как обычно, много простого и понятного юмора ниже пояса, много шуток про медийных персонажей, которые сами охотно снимаются в эпизодах.

Дополнительная информация по релизу: В фильме используется ненормативная лексика. 18+

Сэмпл: http://sendfile.su/1540379

Качество: BDrip, 1080p
Контейнер: MKV
Формат 3D: OverUnder / Вертикальная стереопара
Порядок ракурсов: левый ракурс первый
Видео кодек: x264
Аудио кодек: AC3
Видео: AVC / High@L5.0 / 23,976 fps / 1920х2160 / 27,4 Мбит/сек
Аудио: Русский / AC3 / 48 KHz / 5.1 ch / 384 Кбит/сек(VO - Kenum)
Аудио 2: Испанский / AC3 / 48 KHz / 5.1 ch / 640 Кбит/сек

ВНИМАНИЕ ! На встроенных ТВ-плеерах работать не будет!!!

ТВ Samsung в названии которого есть надпись Ultra HD , и LG Ultra HD 800 серии, LG C6P, Xiaomi Mi TV 2 воспроизводят полные стереопары встроенными плеерами
Железные плееры на которых воспроизводятся полные стереопары:Popcorn C-200 , Dune HD Smart D1 , Dune HD DUO , Dune HD Smart H1 , Dune HD Smart B1 , Dune HD Max , Dune HD TV-303D, Dune HD TV-102, Dune HD Base 3D, Philips HMP7001, Aura HD, MECOOL BB2, Zidoo x9s, Lake I Cloud, MiBox 3
Чтобы изображение было на весь экран в плеере выставляем, если рип 1920х1600 - то выставляем 2.35:1 , если 1920х2160 - то выставляем 16:9
Общее
Уникальный идентификатор : 208398450449749564344151203735680452481 (0x9CC814E44B8DA16094B702B9F5D20781)
Полное имя : E:\видео\Torrente 4.Rip by SeRoGa00.mkv
Формат : Matroska
Версия формата : Version 2
Размер файла : 19,6 Гбайт
Продолжительность : 1 ч. 36 м.
Общий поток : 29,0 Мбит/сек
Дата кодирования : UTC 2020-01-10 14:45:05
Программа кодирования : mkvmerge v3.4.0 ('Rapunzel') сборка от May 15 2010 09:38:20
Библиотека кодирования : libebml v0.8.0 + libmatroska v0.9.0

Видео
Идентификатор : 1
Формат : AVC
Формат/Информация : Advanced Video Codec
Профиль формата : High@L5.0
Параметр CABAC формата : Да
Параметр ReFrames формата : 4 кадра
Идентификатор кодека : V_MPEG4/ISO/AVC
Продолжительность : 1 ч. 36 м.
Битрейт : 27,4 Мбит/сек
Ширина : 1920 пикселей
Высота : 2160 пикселей
Соотношение сторон : 0,889
Частота кадров : 23,976 кадра/сек
Цветовое пространство : YUV
Субдискретизация насыщенности : 4:2:0
Битовая глубина : 8 бит
Тип развёртки : Прогрессивная
Бит/(Пиксели*Кадры) : 0.275
Размер потока : 18,5 Гбайт (94%)
Заголовок : Rip by SeRoGa00
Библиотека кодирования : x264 core 155 r2901 7d0ff22
Настройки программы : cabac=1 / ref=4 / deblock=1:-3:-3 / analyse=0x3:0x113 / me=umh / subme=10 / psy=1 / psy_rd=1.00:0.15 / mixed_ref=1 / me_range=24 / chroma_me=1 / trellis=2 / 8x8dct=1 / cqm=0 / deadzone=21,11 / fast_pskip=1 / chroma_qp_offset=-3 / threads=18 / lookahead_threads=6 / sliced_threads=0 / nr=0 / decimate=0 / interlaced=0 / bluray_compat=0 / constrained_intra=0 / bframes=10 / b_pyramid=2 / b_adapt=2 / b_bias=0 / direct=3 / weightb=1 / open_gop=0 / weightp=2 / keyint=250 / keyint_min=23 / scenecut=40 / intra_refresh=0 / rc_lookahead=60 / rc=crf / mbtree=1 / crf=16.5 / qcomp=0.60 / qpmin=10 / qpmax=69 / qpstep=4 / vbv_maxrate=40000 / vbv_bufsize=40000 / crf_max=0.0 / nal_hrd=none / filler=0 / ip_ratio=1.40 / aq=1:1.00
Язык : English
Default : Нет
Forced : Нет

Аудио #1
Идентификатор : 2
Формат : AC-3
Формат/Информация : Audio Coding 3
Расширение режима : CM (complete main)
Параметр Endianness формата : Big
Идентификатор кодека : A_AC3
Продолжительность : 1 ч. 36 м.
Вид битрейта : Постоянный
Битрейт : 384 Кбит/сек
Каналы : 6 каналов
Расположение каналов : Front: L C R, Side: L R, LFE
Частота : 48,0 КГц
Битовая глубина : 16 бит
Метод сжатия : С потерями
Размер потока : 266 Мбайт (1%)
Язык : Russian
Default : Да
Forced : Нет

Аудио #2
Идентификатор : 3
Формат : AC-3
Формат/Информация : Audio Coding 3
Расширение режима : CM (complete main)
Параметр Endianness формата : Big
Идентификатор кодека : A_AC3
Продолжительность : 1 ч. 36 м.
Вид битрейта : Постоянный
Битрейт : 640 Кбит/сек
Каналы : 6 каналов
Расположение каналов : Front: L C R, Side: L R, LFE
Частота : 48,0 КГц
Битовая глубина : 16 бит
Метод сжатия : С потерями
Размер потока : 443 Мбайт (2%)
Язык : Spanish
Default : Нет
Forced : Нет

Меню
00:00:00.000 : en:00:00:00.000
00:07:54.307 : en:00:07:54.307
00:10:25.333 : en:00:10:25.333
00:13:31.352 : en:00:13:31.352
00:17:19.288 : en:00:17:19.288
00:21:16.567 : en:00:21:16.567
00:23:39.501 : en:00:23:39.501
00:28:12.608 : en:00:28:12.608
00:34:07.337 : en:00:34:07.337
00:40:38.102 : en:00:40:38.102
00:43:46.916 : en:00:43:46.916
00:47:59.085 : en:00:47:59.085
00:51:51.191 : en:00:51:51.191
00:55:15.896 : en:00:55:15.896
01:01:06.788 : en:01:01:06.788
01:05:52.574 : en:01:05:52.574
01:09:41.135 : en:01:09:41.135
01:15:49.545 : en:01:15:49.545
01:20:15.602 : en:01:20:15.602
01:25:10.689 : en:01:25:10.689
01:31:05.460 : en:01:31:05.460
скриншот  

скриншот  

скриншот  

скриншот  

скриншот  

скриншот  
pb.wtf



Скачать Джеймс Понт в 3Д через торрент https://a.radikal.ru/a33/2001/78/73df9afb0a7b.png Скачать фильм Джеймс Понт в 3Д через торрент бесплантно в хорошем качестве Описание: Похождения любимого народного героя и циничного подонка в одном лице. Как обычно, много простого и понятного юмора ниже пояса, ... 10 10 1
Торрент: Зарегистрирован [2020-01-10 16:01] · скачан: 4 раз
Статус: √ проверено
Размер: 19.59 GB
Как cкачать? Как скачать Джеймс Понт в 3Д через торрент | UTorrent

28-11-2019 20:33  

Отключить всю рекламу на сайте

    Дорогой пользователь! Огромная просьба, поблагодарите релизера, оцените раздачу и оставьте свои комментарий, если Вы скачали Джеймс Понт в 3Д через торрент бесплатно! Внесите свою лепту в развитие PiratBit!
    Комментировать посты могут только пользователи прошедшие не сложную регистрацию
    Показать сообщения:    

    Джеймс Понт в 3Д через торрент
    Скачать бесплатно Джеймс Понт в 3Д
    Джеймс Понт в 3Д скачать торрент
    Джеймс Понт в 3Д смотреть онлайн
    Cкачать фильм Джеймс Понт в 3Д бесплатно
    Джеймс Понт в 3Д скачать торрент в хорошем качестве
    Джеймс Понт в 3Д смотреть онлайн бесплатно в хорошем качестве


    Вы не можете начинать темы
    Вы не можете отвечать на сообщения
    Вы не можете редактировать свои сообщения
    Вы не можете удалять свои сообщения
    Вы не можете голосовать в опросах
    Вы не можете прикреплять файлы к сообщениям
    Вы можете скачивать файлы