Всегда рабочее зеркало без VPN и Proxy просто перед .vidak.icu напиши любое слово или цифру, Пример http://2mit.vidak.icu

MVO

Лицензия

1 сезон

1

1 сезон

iTunes

1 сезон

13

1 сезон

Deluxe

pack

Рекомендуем

Repack

30

ВАЖНО

RePack

MK11

RePack

jed

RePack

fifa19

RePack

RDR2

RePack

NEED FOR SPEED™ PAYBACK

Кинопоиск HD

6 сезон

 Острые козырьки 6 сезон

Все сериалы

все сериалы на PB.wtf

RePack

FAR CRY 5
  
Magnet ссылка

Дракула / Dracula / Сезон: 1 / Серии: 1-3 из 3 (Джонни Кэмпбелл, Пол МакГиган, Дэймон Томас) [2020, Ужасы, драма, WEB-DL 720p] MVO [Jaskier] pb.wtf

Дракула через торрент pb.wtf

Размер: 4.55 GB | Добавлен: 2 года 5 мес. назад | Торрент скачан:60 раз
Смотреть онлайн Дракула | Скачать    Ребята, помогите собрать деньги на оплату серверов!!!

10-01-2020 21:57 Дракула Скачать торрент  

Дракула | Dracula
Год выпуска: 2020
Страна: Великобритания
Жанр: Ужасы, драма
Продолжительность: ~ 01:28:00
Перевод: Профессиональный (многоголосый закадровый) | Jaskier
Субтитры: отсутствуют

Режиссер: Джонни Кэмпбелл, Пол МакГиган, Дэймон Томас

rating

В ролях: Клас Банг, Долли Уэллс, Джон Хеффернан, Морфидд Кларк, Джоэнна Скэнлэн, Луиза Рихтер, Джонатан Арис, Саша Дхаван, Нэйтан Стюарт-Джарретт, Катерина Шелл, Юссеф Керкур, Клайв Расселл, Наташа Радски, Марк Гейтисс, Мэттью Бирд, Шанель Крессвелл, Линдси Маршал, Лидия Уэст, Сара Нилс

Описание: Трансильвания, 1897 год. В женском монастыре нашёл приют обессиленный Джонатан Харкер, которому удалось сбежать из замка графа Дракулы. Большой интерес к произошедшему проявляет сестра Агата — тщательно изучив записи Джонатана, она просит рассказать его историю во всех подробностях. Некоторое время назад молодой британец прибыл в замок эксцентричного пожилого румынского аристократа, чтобы тот подписал бумаги о приобретённой им в Лондоне недвижимости. Парень собирался отбыть на следующий день, но граф фактически заключил его в плен: выбраться из бесконечных лабиринтов замка оказывается не так просто, по ночам Джонатана мучают кошмары, и чем хуже он себя чувствует, тем моложе становится Дракула.

Качество: WEB-DL 720p
Формат: MKV

Видео: X264, ~ 2000 kbps, 1280x720 (16:9), 23.976 fps
Аудио#1: AC3, 48,0 КГц, 6 ch, 384 kbps - RUS
Аудио#2: AC3, 48,0 КГц, 6 ch, 384 kbps - ENG
скриншот  скриншот  скриншот  скриншот  

Общее
Уникальный идентификатор : 252497670771571586351658798171891862123 (0xBDF5485218D14BF99AF51766D5A68A6B)
Полное имя : D:\Dracula.2020. Season 1 (720p l Jaskier)\Dracula.2020.S01E01.720p.Jaskier.mkv
Формат : Matroska
Версия формата : Version 2
Размер файла : 1,53 Гбайт
Продолжительность : 1 ч. 29 м.
Режим общего битрейта : Переменный
Общий поток : 2446 Кбит/сек
Дата кодирования : UTC 2020-01-10 13:55:36
Программа кодирования : mkvmerge v7.8.0 ('River Man') 32bit built on Apr 3 2015 12:11:22
Библиотека кодирования : libebml v1.3.1 + libmatroska v1.4.2

Видео
Идентификатор : 1
Формат : AVC
Формат/Информация : Advanced Video Codec
Профиль формата : [email protected]
Параметр CABAC формата : Да
Параметр RefFrames формата : 3 кадра
Идентификатор кодека : V_MPEG4/ISO/AVC
Продолжительность : 1 ч. 29 м.
Вид битрейта : Переменный
Битрейт : 1790 Кбит/сек
Максимальный битрейт : 2535 Кбит/сек
Ширина : 1280 пикселей
Высота : 720 пикселей
Соотношение сторон : 16:9
Режим частоты кадров : Постоянный
Частота кадров : 25,000 кадров/сек
Цветовое пространство : YUV
Субдискретизация насыщенности : 4:2:0
Битовая глубина : 8 бит
Тип развёртки : Прогрессивная
Бит/(Пиксели*Кадры) : 0.073
Размер потока : 1,02 Гбайт (67%)
Библиотека кодирования : x264 core 148 r2715 7e75228
Настройки программы : cabac=1 / ref=3 / deblock=1:0:0 / analyse=0x1:0x111 / me=umh / subme=10 / psy=1 / psy_rd=1.00:0.00 / mixed_ref=1 / me_range=24 / chroma_me=1 / trellis=2 / 8x8dct=0 / cqm=0 / deadzone=21,11 / fast_pskip=1 / chroma_qp_offset=-2 / threads=8 / lookahead_threads=1 / sliced_threads=0 / nr=0 / decimate=1 / interlaced=0 / bluray_compat=0 / stitchable=1 / constrained_intra=0 / bframes=2 / b_pyramid=0 / b_adapt=2 / b_bias=0 / direct=3 / weightb=1 / open_gop=0 / weightp=2 / keyint=250 / keyint_min=25 / scenecut=0 / intra_refresh=0 / rc_lookahead=50 / rc=2pass / mbtree=1 / bitrate=1690 / ratetol=1.0 / qcomp=0.50 / qpmin=6 / qpmax=51 / qpstep=4 / cplxblur=20.0 / qblur=0.5 / vbv_maxrate=2535 / vbv_bufsize=3380 / nal_hrd=vbr / filler=0 / ip_ratio=1.40 / aq=1:1.00
Default : Да
Forced : Нет

Аудио #1
Идентификатор : 2
Формат : AC-3
Формат/Информация : Audio Coding 3
Расширение режима : CM (complete main)
Параметр Endianness формата : Big
Идентификатор кодека : A_AC3
Продолжительность : 1 ч. 29 м.
Вид битрейта : Постоянный
Битрейт : 384 Кбит/сек
Каналы : 6 каналов
Расположение каналов : Front: L C R, Side: L R, LFE
Частота : 48,0 КГц
Частота кадров : 31,250 кадров/сек (1536 spf)
Метод сжатия : С потерями
Размер потока : 246 Мбайт (16%)
Язык : Russian
Default : Да
Forced : Нет

Аудио #2
Идентификатор : 3
Формат : AC-3
Формат/Информация : Audio Coding 3
Расширение режима : CM (complete main)
Параметр Endianness формата : Big
Идентификатор кодека : A_AC3
Продолжительность : 1 ч. 29 м.
Вид битрейта : Постоянный
Битрейт : 384 Кбит/сек
Каналы : 6 каналов
Расположение каналов : Front: L C R, Side: L R, LFE
Частота : 48,0 КГц
Частота кадров : 31,250 кадров/сек (1536 spf)
Метод сжатия : С потерями
Размер потока : 246 Мбайт (16%)
Язык : English
Default : Нет
Forced : Нет

pb.wtf



Скачать Дракула через торрент https://i111.fastpic.ru/big/2020/0111/63/cb85dcaecfeb162581b6bec9ae508f63.png Скачать, смотреть онлайн Дракула бесплантно в хорошем качестве Описание: Трансильвания, 1897 год. В женском монастыре нашёл приют обессиленный Джонатан Харкер, которому удалось сбежать из замка графа ... 10 10 3
Торрент: Зарегистрирован [2020-01-10 21:57] · скачан: 60 раз
Статус: √ проверено
Размер: 4.55 GB
Как cкачать? Как скачать Дракула через торрент | UTorrent

% Раздел Тема Автор DL S | L
Зарубежные сериалы [ 17.89 GB ] Дракула / Dracula / Сезон: 1 / Серии: 1-3 из 3 [2020 WEB-DL 720p] MVO [TVShows] bober100 Скачать
1 | 0
Зарубежные сериалы [ 30.42 GB ] Дракула / Dracula / Сезон: 1 / Серии: 1-3 из 3 [2020 WEB-DL 1080p] MVO [TVShows] bober100 Скачать
1 | 0
Зарубежные сериалы [ 9.27 GB ] Дракула / Dracula / Сезон: 1 / Серии: 1-3 из 3 [2020 WEB-DL 1080p] MVO [Jaskier] bober100 Скачать
1 | 0
Зарубежные сериалы [ 3.13 GB ] Дракула / Dracula / Сезон: 1 / Серии: 1-3 из 3 [2020 WEB-DLRip] MVO [Jaskier] bober100 Скачать
1 | 0
Зарубежные сериалы [ 87.77 GB ] Дракула / Dracula / Сезон: 1 / Серии: 1-3 из 3 [2020 UHD WEBRip 2160p] DUB [Невафильм / Netflix] bober100 Скачать
1 | 0
Зарубежные сериалы [ 7.73 GB ] Дракула / Dracula / Сезон: 1 / Серии: 1- из 3 [2020 WEBRip 720p] DUB [Невафильм / Netflix] +3xMVO bober100 Скачать
1 | 0
Зарубежные сериалы [ 4.39 GB ] Дракула / Dracula / Сезон: 1 / Серии: 1-3 из 3 [2020 WEB-DLRip] - [Невафильм / Netflix] Twi7ter Скачать
1 | 0

28-11-2019 20:33  

Отключить всю рекламу на сайте

12-01-2020 10:28 Дракула Скачать торрент  

не советую ЭТО смотреть!pb.wtf



    Дорогой пользователь! Огромная просьба, поблагодарите релизера, оцените раздачу и оставьте свои комментарий, если Вы скачали Дракула через торрент бесплатно!
    Комментировать посты могут только пользователи прошедшие не сложную регистрацию
    Показать сообщения:    

    Дракула через торрент
    Скачать бесплатно Дракула
    Дракула скачать торрент
    Дракула смотреть онлайн
    Cкачать фильм Дракула бесплатно
    Дракула скачать торрент в хорошем качестве
    Дракула смотреть онлайн бесплатно в хорошем качестве


    Вы не можете начинать темы
    Вы не можете отвечать на сообщения
    Вы не можете редактировать свои сообщения
    Вы не можете удалять свои сообщения
    Вы не можете голосовать в опросах
    Вы не можете прикреплять файлы к сообщениям
    Вы можете скачивать файлы