Ссылка на приватное зеркало нашего сайта всего за 1$. Внимание количество ограничено!!!

2 сезон

iTunes

1 сезон

1

iTunes

iTunes

iTunes

1 сезон

RePack

30

ИГРА 18+

pack

ВАЖНО

!!Акция!!

Alien_RageХит недели

RePack

MK11
pack

Забери бонус

RePack

jed

!!Акция!!

Alien_Rage

RePack

fifa19

RePack

Assassins Creed: Odyssey

RePack

NEED FOR SPEED™ PAYBACK

4 сезон

9 сезон

Бесстыжие 9 сезон

Все сериалы

все сериалы на PB.wtf

RePack

FAR CRY 5
  

Зелёный фургон. Совсем другая история / Сезон: 1 / Серии: 1-16 из 16 (Сергей Крутин) [2020, Детектив, криминал, комедия, WEB-DL 720p] pb.wtf

Зелёный фургон. Совсем другая история через торрент pb.wtf

Раздают: 1 [ 0 KB/s ]
Размер: 15.83 GB | Добавлен: 9 мес. назад | Торрент скачан:88 раз
Скачать  

12-01-2020 02:39 Зелёный фургон. Совсем другая история Скачать торрент  

Зелёный фургон. Совсем другая история Год выпуска: 2020
Страна: Россия
Жанр: Детектив, криминал, комедия
Продолжительность: ~ 00:50:00
Перевод: Не требуется
Субтитры: отсутствуют

Режиссер: Сергей Крутин



В ролях: Дмитрий Харатьян, Семён Трескунов, Екатерина Олькина, Александр Наумов, Наталия Вдовина, Наталья Кийко, Валерий Кухарешин, Артур Ваха, Екатерина Дурова, Артур Сопельник, Александр Рапопорт, Вячеслав Манучаров, Александр Коршунов, Юрий Маслак, Анатолий Кот, Ярослав Жалнин, Александр Давыдов (IV), Олег Масленников-Войтов, Егор Клеймёнов, Алексей Дмитриев, Александр Пугачёв (II), Светлана Казарцева, Александр Сергеев (IV), Владимир Румянцев, Михаил Колядин, Сергей Тишин, Евгений Кушпель, Эдуард Нахатакян, Юрий Литвинов (II), Ольга Гринджак, Ольга Дегтярёва, Анатолий Матешов, Виталия Корниенко, Алексей Овсянников, Константин Тополага, Александр Богданов (II), Алексей Ушаков (III), Евгений Гончаров, Екатерина Тарасова (II), Александр Коваль (IV), Виктория Адельфина, Лина Весёлкина, Игорь Макаров (II), Наталья Тищенко, Владимир Волжин, Ярослав Коробанов, Сергей Граб, Дмитрий Овчинников, Ульяна Панова, Максим Кузин, Артём Киселёв, Виктор Фалалеев, Валерий Гришин, Елена Кабанова, Алексей Бурко, Никита Белых, Татьяна Ометова, Артур Павленко, Василий Куприянов, Александр Скулков, Юлия Балицкая

Описание: 1946 год. Спустя 20 лет, всё в той же Одессе, повзрослевший Володя Патрикеев продолжает бороться с преступностью. Отсидев в тюрьме в 1937 году, отвоевав в штрафбате, а затем в разведроте, он возвращается в гражданскую жизнь и начинает расследовать сложные уголовные дела под руководством совсем "зеленого" сержанта Жени Красавина... Их первое, незначительное, расследование о суррогатной водке, наводнившей город, выводит сыщиков на самый верх, в Москву. И, если они не остановят преступников, может грянуть крупнейший геополитический скандал...

Качество: WEB-DL 720p
Формат: MKV

Видео: MPEG-4 AVC, ~ 2600 Кбит/с, 1280x720, 25 fps
Аудио: 48.0 kHz, AC3 Dolby Digital, 2/0 (L,R) ch, ~ 192 kbps
скриншот  скриншот  скриншот  скриншот  

Общее
Уникальный идентификатор : 251096420620535532959980206465794963445 (0xBCE7695AB20F4586A72633A7635BF7F5)
Полное имя : D:\Zeleniy.furgon.2019.WEB-DL.720p.ExKinoRay\Zeleniy.furgon.e01.2019.WEB-DL.720p.ExKinoRay.mkv
Формат : Matroska
Версия формата : Version 2
Размер файла : 977 Мбайт
Продолжительность : 49 м. 32 с.
Общий поток : 2758 Кбит/сек
Дата кодирования : UTC 2020-01-10 15:43:12
Программа кодирования : mkvmerge v5.8.0 ('No Sleep / Pillow') built on Sep 2 2012 15:37:04
Библиотека кодирования : libebml v1.2.3 + libmatroska v1.3.0

Видео
Идентификатор : 1
Формат : AVC
Формат/Информация : Advanced Video Codec
Профиль формата : High@L4
Параметр CABAC формата : Да
Параметр RefFrames формата : 4 кадра
Идентификатор кодека : V_MPEG4/ISO/AVC
Продолжительность : 49 м. 32 с.
Битрейт : 2511 Кбит/сек
Ширина : 1280 пикселей
Высота : 720 пикселей
Соотношение сторон : 16:9
Режим частоты кадров : Постоянный
Частота кадров : 25,000 кадров/сек
Цветовое пространство : YUV
Субдискретизация насыщенности : 4:2:0
Битовая глубина : 8 бит
Тип развёртки : Прогрессивная
Бит/(Пиксели*Кадры) : 0.109
Размер потока : 890 Мбайт (91%)
Язык : Russian
Default : Да
Forced : Нет

Аудио
Идентификатор : 2
Формат : AC-3
Формат/Информация : Audio Coding 3
Расширение режима : CM (complete main)
Параметр Endianness формата : Big
Идентификатор кодека : A_AC3
Продолжительность : 49 м. 32 с.
Вид битрейта : Постоянный
Битрейт : 192 Кбит/сек
Каналы : 2 канала
Расположение каналов : Front: L R
Частота : 48,0 КГц
Частота кадров : 31,250 кадров/сек (1536 spf)
Метод сжатия : С потерями
Размер потока : 68,0 Мбайт (7%)
Язык : Russian
Default : Да
Forced : Нет

pb.wtf



Скачать Зелёный фургон. Совсем другая история через торрент https://c.radikal.ru/c28/2001/5e/2fad35ce04b8.jpg Скачать фильм Зелёный фургон. Совсем другая история через торрент бесплантно в хорошем качестве Описание: 1946 год. Спустя 20 лет, всё в той же Одессе, повзрослевший Володя Патрикеев продолжает бороться с преступностью. Отсидев в ... 10 10 4
Торрент: Зарегистрирован [2020-01-12 02:39] · скачан: 88 раз
Статус: √ проверено
Размер: 15.83 GB
Как cкачать? Как скачать Зелёный фургон. Совсем другая история через торрент | qTorrent

% Раздел Тема Автор DL S | L
Наши сериалы [ 37.38 GB ] Зелёный фургон. Совсем другая история / Сезон: 1 / Серии: 1-16 из 16 [2020 HDTV 1080i] bober100 Скачать
2 | 0
Наши сериалы [ 29.37 GB ] Зелёный фургон. Совсем другая история / Сезон: 1 / Серии: 1-16 из 16 [2020 WEB-DL 1080p] bober100 Скачать
1 | 0
Наши сериалы [ 20.97 GB ] Зелёный фургон. Совсем другая история / Сезон: 1 / Серии: 1-16 из 16 [2020 HDTVRip 720p] bober100 Скачать
1 | 0
Наши сериалы [ 12.45 GB ] Зелёный фургон. Совсем другая история / Сезон: 1 / Серии: 1-16 из 16 [2020 HDTVRip-AVC] bober100 Скачать
1 | 0
Наши сериалы [ 10.23 GB ] Зелёный фургон. Совсем другая история / Сезон: 1 / Серии: 1-16 из 16 [2020 HDTVRip] bober100 Скачать
1 | 0
Наши сериалы [ 10.61 GB ] Зелёный фургон. Совсем другая история / Сезон: 1 / Серии: 1-16 из 16 [2020 SATRip] bober100 Скачать
1 | 0

28-11-2019 20:33  

Отключить всю рекламу на сайте

    Дорогой пользователь! Огромная просьба, поблагодарите релизера, оцените раздачу и оставьте свои комментарий, если Вы скачали Зелёный фургон. Совсем другая история через торрент бесплатно! Внесите свою лепту в развитие PiratBit!
    Комментировать посты могут только пользователи прошедшие не сложную регистрацию
    Показать сообщения:    

    Зелёный фургон. Совсем другая история через торрент
    Скачать бесплатно Зелёный фургон. Совсем другая история
    Зелёный фургон. Совсем другая история скачать торрент
    Зелёный фургон. Совсем другая история смотреть онлайн
    Cкачать фильм Зелёный фургон. Совсем другая история бесплатно
    Зелёный фургон. Совсем другая история скачать торрент в хорошем качестве
    Зелёный фургон. Совсем другая история смотреть онлайн бесплатно в хорошем качестве


    Вы не можете начинать темы
    Вы не можете отвечать на сообщения
    Вы не можете редактировать свои сообщения
    Вы не можете удалять свои сообщения
    Вы не можете голосовать в опросах
    Вы не можете прикреплять файлы к сообщениям
    Вы можете скачивать файлы