Всегда рабочее зеркало без VPN и Proxy просто перед .vidak.icu напиши любое слово или цифру, Пример http://36j1.vidak.icu

MVO

2 сезон

2 сезон

1

1 сезон

iTunes

2 сезон

13

1 сезон

Распродажа

pack

Рекомендуем

Пиратка

30

ВАЖНО

RePack

MK11

RePack

jed

RePack

fifa19

RePack

RDR2

RePack

NEED FOR SPEED™ PAYBACK

Кинопоиск HD

6 сезон

 Острые козырьки 6 сезон

Все сериалы

все сериалы на PB.wtf

RePack

FAR CRY 5

Anonymous, нам критически не хватает 5601 руб. на оплату серверов и переферии за Апрель, помоги нам пожалуйста, вся надежда только на тебя. В благодарность мы отключим тебе всю рекламу на сайте!

×
  
Magnet ссылка

До свидания, мальчики (Борис Балтер, Михаил Калик) [1964, СССР, драма, SATRip от AVP Studio] pb.wtf

До свидания, мальчики через торрент pb.wtf

Раздают: 1 [ 0 KB/s ]
Размер: 790 MB | Добавлен: 2 года 4 мес. назад | Торрент скачан:26 раз
Смотреть онлайн До свидания, мальчики | Скачать    Ребята, помогите собрать деньги на оплату серверов!!!

12-01-2020 10:59 До свидания, мальчики Скачать торрент  

До свидания, мальчики
Страна: СССР
Производство: Мосфильм

Жанр: драма
Год выпуска: 1964
Продолжительность: 01:17:35

Перевод: Не требуется
Cубтитры: нет
Оригинальная аудиодорожка: русский

Режиссер: Борис Балтер, Михаил Калик


Евгений Стеблов, Николай Досталь (II), Михаил Кононов, Наталия Богунова, Анна Родионова, Виктория Фёдорова, Ефим Копелян, Алексей Кузнецов, Евгений Перов, Ангелина Степанова, Николай Граббе, Максим Греков, Иосиф Колин (Гросс)...
Об актёрах подробней


В приморском городе живут три друга. Целыми днями они пропадают на море, невольно наблюдая жизнь порта, пляжные радости отдыхающих и с юношеским максимализмом размышляя о дружбе, первой любви и смысле их молодой жизни, которую совсем скоро перевернет война…

Исходник: DVB
Качество видео: SATRip
Формат видео: AVI

Видео: 688x512 (4:3), 25,000 кадров/сек, XviD ~ 1286 kbps avg, 0.146 bit/pixel
Аудио: 48 kHz, MPEG Audio MP3 2.0, 128 kbps

Раздача от:
Общее
Полное имя : Do.svidaniya,malchiki.1964.SATRip_[New-team]_by_AVP_Studio.avi
Формат : AVI
Формат/Информация : Audio Video Interleave
Размер файла : 790 Мбайт
Продолжительность : 1 ч. 17 м.
Общий поток : 1424 Кбит/сек
Программа кодирования : VirtualDubMod 1.5.10.3 | www.virtualdub-fr.org || (build 2550/release)
Библиотека кодирования : VirtualDubMod build 2550/release

Видео
Идентификатор : 0
Формат : MPEG-4 Visual
Профиль формата : Advanced Simple@L5
Настройки формата : BVOP1 / Custom Matrix
Параметр BVOP формата : 1
Параметр QPel формата : Нет
Параметр GMC формата : Без точки перехода
Параметр матрицы формата : Выборочная
Идентификатор кодека : XVID
Идентификатор кодека/Подсказка : XviD
Продолжительность : 1 ч. 17 м.
Битрейт : 1286 Кбит/сек
Ширина : 688 пикселей
Высота : 512 пикселей
Соотношение сторон : 4:3
Частота кадров : 25,000 кадров/сек
Цветовое пространство : YUV
Субдискретизация насыщенности : 4:2:0
Битовая глубина : 8 бит
Тип развёртки : Прогрессивная
Метод сжатия : С потерями
Бит/(Пиксели*Кадры) : 0.146
Размер потока : 714 Мбайт (90%)
Библиотека кодирования : XviD 73

Аудио
Идентификатор : 1
Формат : MPEG Audio
Версия формата : Version 1
Профиль формата : Layer 3
Идентификатор кодека : 55
Идентификатор кодека/Подсказка : MP3
Продолжительность : 1 ч. 17 м.
Вид битрейта : Постоянный
Битрейт : 128 Кбит/сек
Каналы : 2 канала
Частота : 48,0 КГц
Частота кадров : 41,667 кадра/сек (1152 SPF)
Метод сжатия : С потерями
Размер потока : 71,0 Мбайт (9%)
Выравнивание : Соединение по промежуткам
Продолжительность промежутка : 40 мс. (1,00 видеокадр)
Время предзагрузки промежутка : 504 мс.
Библиотека кодирования : LAME3.99r
Настройки программы : -m s -V 4 -q 2 -lowpass 17 -b 128
pb.wtf



Скачать До свидания, мальчики через торрент http://d.radikal.ru/d02/2001/a7/96a5cfa8a8f6.png Скачать, смотреть онлайн До свидания, мальчики бесплантно в хорошем качестве Год выпуска: 1964Продолжительность: 01:17:35Перевод: Не требуетсяCубтитры: нетОригинальная аудиодорожка: русскийРежиссер: Борис Балтер, ... 8.5 10 2
Торрент: Зарегистрирован [2020-01-12 10:59] · скачан: 26 раз
Статус: √ проверено
Размер: 790 MB
Как cкачать? Как скачать До свидания, мальчики через торрент | UTorrent

% Раздел Тема Автор DL S | L
Наши сериалы [ 8.63 GB ] До свидания мальчики / Подольские курсанты / Серии: 1-16 из 16 [2014 Военная SATRip] lug30 Скачать
1 | 1
Кино СССР [ 1.09 GB ] До свидания мальчики [1964 СССР SATRip-AVC от AVP Studio] AVP Studio Скачать
4 | 0

28-11-2019 20:33  

Отключить всю рекламу на сайте

    Дорогой пользователь! Огромная просьба, поблагодарите релизера, оцените раздачу и оставьте свои комментарий, если Вы скачали До свидания, мальчики через торрент бесплатно!
    Комментировать посты могут только пользователи прошедшие не сложную регистрацию
    Показать сообщения:    

    До свидания, мальчики через торрент
    Скачать бесплатно До свидания, мальчики
    До свидания, мальчики скачать торрент
    До свидания, мальчики смотреть онлайн
    Cкачать фильм До свидания, мальчики бесплатно
    До свидания, мальчики скачать торрент в хорошем качестве
    До свидания, мальчики смотреть онлайн бесплатно в хорошем качестве


    Вы не можете начинать темы
    Вы не можете отвечать на сообщения
    Вы не можете редактировать свои сообщения
    Вы не можете удалять свои сообщения
    Вы не можете голосовать в опросах
    Вы не можете прикреплять файлы к сообщениям
    Вы можете скачивать файлы