Ссылка на приватное зеркало нашего сайта всего за 1$. Внимание количество ограничено!!!

2 сезон

iTunes

1 сезон

1

iTunes

iTunes

iTunes

1 сезон

RePack

30

ИГРА 18+

pack

ВАЖНО

!!Акция!!

Alien_RageХит недели

RePack

MK11
pack

Забери бонус

RePack

jed

!!Акция!!

Alien_Rage

RePack

fifa19

RePack

Assassins Creed: Odyssey

RePack

NEED FOR SPEED™ PAYBACK

4 сезон

9 сезон

Бесстыжие 9 сезон

Все сериалы

все сериалы на PB.wtf

RePack

FAR CRY 5
  

До свидания, мальчики (Борис Балтер, Михаил Калик) [1964, СССР, драма, SATRip-AVC от AVP Studio] pb.wtf

До свидания, мальчики через торрент pb.wtf

Раздают: 4 [ 0 KB/s ]
Размер: 1.09 GB | Добавлен: 9 мес. назад | Торрент скачан:18 раз
Скачать  

12-01-2020 11:00 До свидания, мальчики Скачать торрент  

До свидания, мальчики
Страна: СССР
Производство: Мосфильм

Жанр: драма
Год выпуска: 1964
Продолжительность: 01:17:35

Перевод: Не требуется
Cубтитры: нет
Оригинальная аудиодорожка: русский

Режиссер: Борис Балтер, Михаил Калик


Евгений Стеблов, Николай Досталь (II), Михаил Кононов, Наталия Богунова, Анна Родионова, Виктория Фёдорова, Ефим Копелян, Алексей Кузнецов, Евгений Перов, Ангелина Степанова, Николай Граббе, Максим Греков, Иосиф Колин (Гросс)...
Об актёрах подробней


В приморском городе живут три друга. Целыми днями они пропадают на море, невольно наблюдая жизнь порта, пляжные радости отдыхающих и с юношеским максимализмом размышляя о дружбе, первой любви и смысле их молодой жизни, которую совсем скоро перевернет война…

Исходник: DVB
Качество видео: SATRip-AVC
Формат видео: MKV

Видео: 688->736x552 (4:3), 25,000 кадров/сек, H264 ~ 1816 kbps avg, 0.191 bit/pixel
Аудио: 48 kHz, Dolby Digital AC3 2.0, 192 kbps

Раздача от:
Общее
Полное имя : Do.svidaniya,malchiki.1964.SATRip-AVC_[New-team]_by_AVP_Studio.mkv
Формат : Matroska
Версия формата : Version 2
Размер файла : 1,09 Гбайт
Продолжительность : 1 ч. 17 м.
Общий поток : 2010 Кбит/сек
Дата кодирования : UTC 2019-12-29 12:32:31
Программа кодирования : mkvmerge v6.1.0 ('Old Devil') built on Mar 4 2013 09:10:42
Библиотека кодирования : libebml v1.3.0 + libmatroska v1.4.0

Видео
Идентификатор : 1
Формат : AVC
Формат/Информация : Advanced Video Codec
Профиль формата : High@L4.1
Настройки формата : CABAC / 10 Ref Frames
Параметр CABAC формата : Да
Параметр RefFrames формата : 10 кадров
Идентификатор кодека : V_MPEG4/ISO/AVC
Продолжительность : 1 ч. 17 м.
Битрейт : 1816 Кбит/сек
Ширина : 688 пикселей
Высота : 552 пикселя
Соотношение сторон : 4:3
Режим частоты кадров : Постоянный
Частота кадров : 25,000 кадров/сек
Цветовое пространство : YUV
Субдискретизация насыщенности : 4:2:0
Битовая глубина : 8 бит
Тип развёртки : Прогрессивная
Бит/(Пиксели*Кадры) : 0.191
Размер потока : 987 Мбайт (88%)
Библиотека кодирования : x264 core 157 r2932 303c484
Настройки программы : cabac=1 / ref=10 / deblock=1:-2:-1 / analyse=0x3:0x113 / me=umh / subme=10 / psy=1 / psy_rd=1.00:0.00 / mixed_ref=1 / me_range=32 / chroma_me=1 / trellis=2 / 8x8dct=1 / cqm=0 / deadzone=21,11 / fast_pskip=1 / chroma_qp_offset=-2 / threads=6 / lookahead_threads=1 / sliced_threads=0 / nr=0 / decimate=0 / interlaced=0 / bluray_compat=0 / constrained_intra=0 / bframes=8 / b_pyramid=2 / b_adapt=2 / b_bias=0 / direct=3 / weightb=1 / open_gop=0 / weightp=2 / keyint=250 / keyint_min=25 / scenecut=40 / intra_refresh=0 / rc=2pass / mbtree=0 / bitrate=1816 / ratetol=1.0 / qcomp=0.60 / qpmin=0 / qpmax=69 / qpstep=4 / cplxblur=20.0 / qblur=0.5 / ip_ratio=1.40 / pb_ratio=1.30 / aq=1:1.00
Default : Да
Forced : Нет

Аудио
Идентификатор : 2
Формат : AC-3
Формат/Информация : Audio Coding 3
Коммерческое название : Dolby Digital
Идентификатор кодека : A_AC3
Продолжительность : 1 ч. 17 м.
Вид битрейта : Постоянный
Битрейт : 192 Кбит/сек
Каналы : 2 канала
ChannelLayout : L R
Частота : 48,0 КГц
Частота кадров : 31,250 кадров/сек (1536 SPF)
Битовая глубина : 16 бит
Метод сжатия : С потерями
Размер потока : 107 Мбайт (10%)
Default : Да
Forced : Нет
pb.wtf



Скачать До свидания, мальчики через торрент http://d.radikal.ru/d02/2001/a7/96a5cfa8a8f6.png Скачать фильм До свидания, мальчики через торрент бесплантно в хорошем качестве Год выпуска: 1964Продолжительность: 01:17:35Перевод: Не требуетсяCубтитры: нетОригинальная аудиодорожка: русскийРежиссер: Борис Балтер, ... 8 10 1
Торрент: Зарегистрирован [2020-01-12 11:00] · скачан: 18 раз
Статус: √ проверено
Размер: 1.09 GB
Как cкачать? Как скачать До свидания, мальчики через торрент | qTorrent

% Раздел Тема Автор DL S | L
Кино СССР [ 790 MB ] До свидания мальчики [1964 СССР SATRip от AVP Studio] AVP Studio Скачать
1 | 0
Наши сериалы [ 8.63 GB ] До свидания мальчики / Подольские курсанты / Серии: 1-16 из 16 [2014 Военная SATRip] lug30 Скачать
1 | 1

28-11-2019 20:33  

Отключить всю рекламу на сайте

    Дорогой пользователь! Огромная просьба, поблагодарите релизера, оцените раздачу и оставьте свои комментарий, если Вы скачали До свидания, мальчики через торрент бесплатно! Внесите свою лепту в развитие PiratBit!
    Комментировать посты могут только пользователи прошедшие не сложную регистрацию
    Показать сообщения:    

    До свидания, мальчики через торрент
    Скачать бесплатно До свидания, мальчики
    До свидания, мальчики скачать торрент
    До свидания, мальчики смотреть онлайн
    Cкачать фильм До свидания, мальчики бесплатно
    До свидания, мальчики скачать торрент в хорошем качестве
    До свидания, мальчики смотреть онлайн бесплатно в хорошем качестве


    Вы не можете начинать темы
    Вы не можете отвечать на сообщения
    Вы не можете редактировать свои сообщения
    Вы не можете удалять свои сообщения
    Вы не можете голосовать в опросах
    Вы не можете прикреплять файлы к сообщениям
    Вы можете скачивать файлы