Ссылка на приватное зеркало всего за 1$. Внимание количество ограничено!!!

OK

1+1

iTunes

мы

OK

1

WEB-DLRip

Джокер

Пифагор

Ведьмак / The Witcher сериал

Лицензия

ПШазам

ОК

Оно 2

iTunes

30
pack

Вам бонус

ВАЖНО

!!Акция!!

Alien_RageХит недели

RePack

Resident Evil 21

ИГРА 18+

pack

RePack

jed

RePack

fifa19

RePack

Assassins Creed: Odyssey

RePack

NEED FOR SPEED™ PAYBACK

4 сезон

9 сезон

Бесстыжие 9 сезон

Все сериалы

все сериалы на PB.wtf

RePack

FAR CRY 5
  

Падение в мертвые воды / Deadwater Fell / Сезон: 1 / Серии: 1- из 4 (Линси Миллер) [2020, Драма, криминал, HDTV 720p] 3xMVO pb.wtf

Падение в мертвые воды через торрент pb.wtf

Размер: 1.07 GB | Добавлен: 9 д. назад | Торрент скачан:4 раза
Скачать  

13-01-2020 12:20 Падение в мертвые воды Скачать торрент  

Падение в мертвые воды / Deadwater Fell
Год выпуска: 2020
Страна: Великобритания
Жанр: Драма, криминал
Продолжительность: ~ 00:45:00 серия
Перевод:
Профессиональный (многоголосый) | NewStudio
Профессиональный (многоголосый) | TVShows
Профессиональный (многоголосый) | Ozz
Субтитры: Русские (Forced, Full)

Режиссер: Линси Миллер

rating

В ролях: Дэвид Теннант, Морин Битти, Стюарт Боуман, Лори Бретт, Гордон Браун, Грэйс Калдер, Льюис Гриббен, Селин Хизли, Каш Джамбо, Лорн МакДональд, Анна Маделей

Описание: Том Кендрик проживает в маленьком городе, где у него всё идеально. Есть хорошая работа, любимая супруга и не менее обожаемые дети. Он не скрывает своего удовольствия наслаждаться каждым днем жизни. Все меняется, когда происходит несчастный случай. Во время пожара вся семья Тома погибает. Главный герой выживает, несмотря на многочисленные раны. Будучи единственным, кому удалось спастись, он постарается найти того, кто причастен к трагедии, надеясь совершить возмездие.

Качество: HDTV 720p
Формат: MKV

Видео: AVC, 1280x640 (2.0), ~ 2040 Kbps, 25 fps
Аудио 1: AC3, 48 kHz, 6 ch, 384 kbps - Rus (NewStudio)
Аудио 2: AC3, 48 kHz, 6 ch, 384 kbps - Rus (TVShows)
Аудио 3: AC3, 48 kHz, 2 ch, 192 kbps - Rus (Ozz)
Аудио 4: AC3, 48 kHz, 6 ch, 384 kbps - Eng
скриншот  скриншот  скриншот  скриншот  скриншот  

Общее
Уникальный идентификатор : 237288855473067708371053982081606912338 (0xB2842BD53CCB00239598FF27A1D68952)
Полное имя : Падение в мёртвые воды. Сериал. 2020. EniaHD (HDTVRip 720p)\Deadwater.Fell.s01e01. Эпизод 1.mkv
Формат : Matroska
Версия формата : Version 2
Размер файла : 1,07 Гбайт
Продолжительность : 44 м. 25 с.
Общий поток : 3448 Кбит/сек
Дата кодирования : UTC 2020-01-14 16:09:24
Программа кодирования : mkvmerge v6.9.1 ('Blue Panther') 32bit built on Apr 18 2014 18:15:44
Библиотека кодирования : libebml v1.3.0 + libmatroska v1.4.1

Видео
Идентификатор : 1
Формат : AVC
Формат/Информация : Advanced Video Codec
Профиль формата : High@L4.1
Настройки формата : CABAC / 5 Ref Frames
Параметр CABAC формата : Да
Параметр RefFrames формата : 5 кадров
Идентификатор кодека : V_MPEG4/ISO/AVC
Продолжительность : 44 м. 25 с.
Битрейт : 2035 Кбит/сек
Ширина : 1280 пикселей
Высота : 640 пикселей
Соотношение сторон : 2,000
Режим частоты кадров : Постоянный
Частота кадров : 25,000 кадров/сек
Цветовое пространство : YUV
Субдискретизация насыщенности : 4:2:0
Битовая глубина : 8 бит
Тип развёртки : Прогрессивная
Бит/(Пиксели*Кадры) : 0.099
Размер потока : 647 Мбайт (59%)
Библиотека кодирования : x264 core 159 r2991 1771b55
Настройки программы : cabac=1 / ref=5 / deblock=1:0:0 / analyse=0x3:0x113 / me=hex / subme=8 / psy=1 / psy_rd=1.00:0.00 / mixed_ref=1 / me_range=16 / chroma_me=1 / trellis=2 / 8x8dct=1 / cqm=0 / deadzone=21,11 / fast_pskip=1 / chroma_qp_offset=-2 / threads=18 / lookahead_threads=3 / sliced_threads=0 / nr=0 / decimate=1 / interlaced=0 / bluray_compat=0 / constrained_intra=0 / bframes=3 / b_pyramid=2 / b_adapt=1 / b_bias=0 / direct=3 / weightb=1 / open_gop=0 / weightp=2 / keyint=250 / keyint_min=25 / scenecut=40 / intra_refresh=0 / rc_lookahead=50 / rc=crf / mbtree=1 / crf=18.0 / qcomp=0.60 / qpmin=0 / qpmax=69 / qpstep=4 / ip_ratio=1.40 / aq=1:1.00
Язык : English
Default : Да
Forced : Нет

Аудио #1
Идентификатор : 2
Формат : AC-3
Формат/Информация : Audio Coding 3
Коммерческое название : Dolby Digital
Идентификатор кодека : A_AC3
Продолжительность : 44 м. 25 с.
Вид битрейта : Постоянный
Битрейт : 384 Кбит/сек
Каналы : 6 каналов
Channel layout : L R C LFE Ls Rs
Частота : 48,0 КГц
Частота кадров : 31,250 кадров/сек (1536 SPF)
Битовая глубина : 16 бит
Метод сжатия : С потерями
Размер потока : 122 Мбайт (11%)
Заголовок : NewStudio
Язык : Russian
ServiceKind/String : Complete Main
Default : Да
Forced : Нет

Аудио #2
Идентификатор : 3
Формат : AC-3
Формат/Информация : Audio Coding 3
Коммерческое название : Dolby Digital
Идентификатор кодека : A_AC3
Продолжительность : 44 м. 25 с.
Вид битрейта : Постоянный
Битрейт : 384 Кбит/сек
Каналы : 6 каналов
Channel layout : L R C LFE Ls Rs
Частота : 48,0 КГц
Частота кадров : 31,250 кадров/сек (1536 SPF)
Битовая глубина : 16 бит
Метод сжатия : С потерями
Размер потока : 122 Мбайт (11%)
Заголовок : TVShows
Язык : Russian
ServiceKind/String : Complete Main
Default : Нет
Forced : Нет

Аудио #3
Идентификатор : 4
Формат : AC-3
Формат/Информация : Audio Coding 3
Коммерческое название : Dolby Digital
Идентификатор кодека : A_AC3
Продолжительность : 44 м. 25 с.
Вид битрейта : Постоянный
Битрейт : 192 Кбит/сек
Каналы : 2 канала
Channel layout : L R
Частота : 48,0 КГц
Частота кадров : 31,250 кадров/сек (1536 SPF)
Битовая глубина : 16 бит
Метод сжатия : С потерями
Размер потока : 61,0 Мбайт (6%)
Заголовок : Ozz
Язык : Russian
ServiceKind/String : Complete Main
Default : Нет
Forced : Нет

Аудио #4
Идентификатор : 5
Формат : AC-3
Формат/Информация : Audio Coding 3
Коммерческое название : Dolby Digital
Идентификатор кодека : A_AC3
Продолжительность : 44 м. 25 с.
Вид битрейта : Постоянный
Битрейт : 384 Кбит/сек
Каналы : 6 каналов
Channel layout : L R C LFE Ls Rs
Частота : 48,0 КГц
Частота кадров : 31,250 кадров/сек (1536 SPF)
Битовая глубина : 16 бит
Метод сжатия : С потерями
Размер потока : 122 Мбайт (11%)
Язык : English
ServiceKind/String : Complete Main
Default : Нет
Forced : Нет

Текст #1
Идентификатор : 6
Формат : UTF-8
Идентификатор кодека : S_TEXT/UTF8
Идентификатор кодека/Информация : UTF-8 Plain Text
Заголовок : Forced
Язык : Russian
Default : Да
Forced : Да

Текст #2
Идентификатор : 7
Формат : UTF-8
Идентификатор кодека : S_TEXT/UTF8
Идентификатор кодека/Информация : UTF-8 Plain Text
Язык : Russian
Default : Нет
Forced : Нет

При каждом добавлении создаётся новый торрент. Чтобы начать докачку новой серии, пользователям необходимо сделать следующее:

остановить скачивание,
удалить старый торрент у себя из клиента (старые серии удалять не надо),
скачать новый торрент и запустить его у себя в клиенте вместо старого, при этом указать клиенту путь в старую папку куда и должно происходить скачивание новых серий.

Ваш клиент при этом должен произвести хеширование (проверку) старой папки (если не производит сам - помогите ему сделать это), и будет докачивать только те серии которых у вас ещё нет. Старые серии при этом не удаляются, а продолжают раздаваться!
Eсли вы уже удалили старые серии, то предотвратить повторную закачку старых серий можно, отжав галочку в соответствующих местах при запуске нового торрента. По возможности, желательно не удалять старые серии как можно дольше чтобы релизёр не столько продолжал раздавать старые серии, а смог сконцентрироваться на новых.
pb.wtf



Скачать Падение в мертвые воды через торрент https://funkyimg.com/i/31m59.png Скачать фильм Падение в мертвые воды через торрент бесплантно в хорошем качестве Описание: Том Кендрик проживает в маленьком городе, где у него всё идеально. Есть хорошая работа, любимая супруга и не менее обожаемые ... 10 10 2
Торрент: Зарегистрирован [2020-01-14 17:17] · скачан: 4 раз
Статус: √ проверено
Размер: 1.07 GB
Как cкачать? Как скачать Падение в мертвые воды через торрент | qTorrent

28-11-2019 20:33  

Отключить всю рекламу на сайте

    Дорогой пользователь! Огромная просьба, поблагодарите релизера, оцените раздачу и оставьте свои комментарий, если Вы скачали Падение в мертвые воды через торрент бесплатно! Внесите свою лепту в развитие PiratBit!
    Комментировать посты могут только пользователи прошедшие не сложную регистрацию
    Показать сообщения:    

    Падение в мертвые воды через торрент
    Скачать бесплатно Падение в мертвые воды
    Падение в мертвые воды скачать торрент
    Падение в мертвые воды смотреть онлайн
    Cкачать фильм Падение в мертвые воды бесплатно
    Падение в мертвые воды скачать торрент в хорошем качестве
    Падение в мертвые воды смотреть онлайн бесплатно в хорошем качестве


    Вы не можете начинать темы
    Вы не можете отвечать на сообщения
    Вы не можете редактировать свои сообщения
    Вы не можете удалять свои сообщения
    Вы не можете голосовать в опросах
    Вы не можете прикреплять файлы к сообщениям
    Вы можете скачивать файлы