Ссылка на приватное зеркало всего за 1$. Внимание количество ограничено!!!

OK

1+1

iTunes

мы

OK

1

WEB-DLRip

Джокер

Пифагор

Ведьмак / The Witcher сериал

Лицензия

ПШазам

ОК

Оно 2

iTunes

30
pack

Вам бонус

ВАЖНО

!!Акция!!

Alien_RageХит недели

RePack

Resident Evil 21

ИГРА 18+

pack

RePack

jed

RePack

fifa19

RePack

Assassins Creed: Odyssey

RePack

NEED FOR SPEED™ PAYBACK

4 сезон

9 сезон

Бесстыжие 9 сезон

Все сериалы

все сериалы на PB.wtf

RePack

FAR CRY 5
  

Курьер / The Courier (Закари Адлер) [2019, боевик, триллер, драма, BDRip-AVC] DUB (rus, ukr) [iTunes] - ExKinoRay pb.wtf

Курьер через торрент pb.wtf

Раздают: 45 [ 979 KB/s ] Качают: 1 [ 0 KB/s ]
Размер: 2.05 GB | Добавлен: 9 д. назад | Торрент скачан:157 раз
Скачать  

14-01-2020 17:36 Курьер Скачать торрент  

Название: Курьер
Оригинальное название: The Courier
Год выпуска: 2019
Жанр: Боевик, триллер, драма
Режиссер: Закари Адлер
В ролях: Ольга Куриленко, Гэри Олдман, Амит Шах, Алисия Агнесон, Грег Орвис, Крэйг Конуэй, Уильям Моусли, Дермот Малруни, Гордон Александр, Нил Чапелоу

О фильме:
На первый взгляд, она - всего лишь курьер на черном мотоцикле, стремительно пронзающем ночной Лондон. Но даже в огромном мегаполисе красотке удается ускользнуть от уличных камер, и ее имя невозможно найти ни в одной базе данных. Именно она, дерзкая и неуловимая, бросит вызов могущественному криминальному боссу. И ему лучше не знать, кто на самом деле эта взрывная брюнетка...


rating

Страна: Великобритания, США
Студия: Rollercoaster Angel Productions, Signature Films
Продолжительность: 01:39:39
Перевод: Дублированный | iTunes

Формат: MKV
Качество: BDRip-AVC
Источник: |The.Courier.2019.BDREMUX.1080p.seleZen.mkv|
Видео: MPEG-4 AVC, 1024x428 (2.40:1), 23.976 fps, 1928 Kbps, 0.183 bit/pixel
Аудио #01: 48 kHz, AC3, 5.1, 384 Kbps | Дублированный | RUS |
Аудио #02: 48 kHz, AC3, 2.0, 192 Kbps | Дублированный | UKR |
Аудио #03: 48 kHz, AC3, 5.1, 448 Kbps | Оригинал | ENG |
Субтитры: Русские (Full), английские
General
Unique ID : 209044720131592589357554033813528922065 (0x9D448C727992FE7E83D514E6158647D1)
Complete name : F:\The.Courier.2019.BDRip.AVC.ExKinoRay.mkv
Format : Matroska
Format version : Version 2
File size : 2.05 GiB
Duration : 1 h 39 min
Overall bit rate : 2 948 kb/s
Movie name : The Courier 2019 from ExKinoRay
Encoded date : UTC 2020-01-14 13:25:05
Writing application : mkvmerge v5.6.0 ('Kenya Kane') built on May 27 2012 16:44:04
Writing library : libebml v1.2.3 + libmatroska v1.3.0
Attachments : front.jpg

Video
ID : 1
Format : AVC
Format/Info : Advanced Video Codec
Format profile : High@L4.1
Format settings, CABAC : Yes
Format settings, ReFrames : 12 frames
Codec ID : V_MPEG4/ISO/AVC
Duration : 1 h 39 min
Bit rate : 1 928 kb/s
Width : 1 024 pixels
Height : 428 pixels
Display aspect ratio : 2.40:1
Frame rate mode : Constant
Frame rate : 23.976 (23976/1000) FPS
Color space : YUV
Chroma subsampling : 4:2:0
Bit depth : 8 bits
Scan type : Progressive
Bits/(Pixel*Frame) : 0.183
Stream size : 1.30 GiB (63%)
Title : Enigma
Writing library : x264 core 152 r2851 ba24899
Encoding settings : cabac=1 / ref=12 / deblock=1:-2:-2 / analyse=0x3:0x113 / me=umh / subme=10 / psy=1 / psy_rd=1.05:0.07 / mixed_ref=1 / me_range=32 / chroma_me=1 / trellis=2 / 8x8dct=1 / cqm=0 / deadzone=21,11 / fast_pskip=0 / chroma_qp_offset=-3 / threads=12 / lookahead_threads=3 / sliced_threads=0 / nr=0 / decimate=0 / interlaced=0 / bluray_compat=0 / constrained_intra=0 / bframes=12 / b_pyramid=2 / b_adapt=2 / b_bias=0 / direct=3 / weightb=1 / open_gop=0 / weightp=2 / keyint=240 / keyint_min=23 / scenecut=40 / intra_refresh=0 / rc=2pass / mbtree=0 / bitrate=1928 / ratetol=1.0 / qcomp=0.60 / qpmin=0 / qpmax=51 / qpstep=4 / cplxblur=20.0 / qblur=0.5 / ip_ratio=1.40 / pb_ratio=1.30 / aq=1:1.00
Language : English
Default : Yes
Forced : No
Color range : Limited
Color primaries : BT.709
Transfer characteristics : BT.709
Matrix coefficients : BT.709

Audio #1
ID : 2
Format : AC-3
Format/Info : Audio Coding 3
Mode extension : CM (complete main)
Format settings, Endianness : Big
Codec ID : A_AC3
Duration : 1 h 39 min
Bit rate mode : Constant
Bit rate : 384 kb/s
Channel(s) : 6 channels
Channel positions : Front: L C R, Side: L R, LFE
Sampling rate : 48.0 kHz
Frame rate : 31.250 FPS (1536 spf)
Compression mode : Lossy
Stream size : 274 MiB (13%)
Title : iTunes
Language : Russian
Default : Yes
Forced : No

Audio #2
ID : 3
Format : AC-3
Format/Info : Audio Coding 3
Mode extension : CM (complete main)
Format settings, Endianness : Big
Codec ID : A_AC3
Duration : 1 h 39 min
Bit rate mode : Constant
Bit rate : 192 kb/s
Channel(s) : 2 channels
Channel positions : Front: L R
Sampling rate : 48.0 kHz
Frame rate : 31.250 FPS (1536 spf)
Compression mode : Lossy
Stream size : 137 MiB (7%)
Language : Ukrainian
Default : No
Forced : No

Audio #3
ID : 4
Format : AC-3
Format/Info : Audio Coding 3
Mode extension : CM (complete main)
Format settings, Endianness : Big
Codec ID : A_AC3
Duration : 1 h 39 min
Bit rate mode : Constant
Bit rate : 448 kb/s
Channel(s) : 6 channels
Channel positions : Front: L C R, Side: L R, LFE
Sampling rate : 48.0 kHz
Frame rate : 31.250 FPS (1536 spf)
Compression mode : Lossy
Stream size : 319 MiB (15%)
Language : English
Default : No
Forced : No

Text #1
ID : 5
Format : UTF-8
Codec ID : S_TEXT/UTF8
Codec ID/Info : UTF-8 Plain Text
Title : Full
Language : Russian
Default : No
Forced : No

Text #2
ID : 6
Format : UTF-8
Codec ID : S_TEXT/UTF8
Codec ID/Info : UTF-8 Plain Text
Title : Full
Language : English
Default : No
Forced : No

Text #3
ID : 7
Format : UTF-8
Codec ID : S_TEXT/UTF8
Codec ID/Info : UTF-8 Plain Text
Title : SDH
Language : English
Default : No
Forced : No

Menu
00:00:00.000 : en:Chapter 01
00:08:21.126 : en:Chapter 02
00:13:59.797 : en:Chapter 03
00:18:42.163 : en:Chapter 04
00:25:09.258 : en:Chapter 05
00:31:29.054 : en:Chapter 06
00:34:47.711 : en:Chapter 07
00:41:41.332 : en:Chapter 08
00:45:43.741 : en:Chapter 09
00:52:26.727 : en:Chapter 10
00:57:45.671 : en:Chapter 11
01:05:11.491 : en:Chapter 12
01:11:38.920 : en:Chapter 13
01:17:23.639 : en:Chapter 14
01:25:30.834 : en:Chapter 15
01:33:35.568 : en:Chapter 16


Релиз от:

Автор релиза: pb.wtf



Скачать Курьер через торрент https://img16.lostpic.net/2020/01/12/2e872de203e48cfc12ec09683a0564d2.jpg Скачать фильм Курьер через торрент бесплантно в хорошем качестве О фильме: На первый взгляд, она - всего лишь курьер на черном мотоцикле, стремительно пронзающем ночной Лондон. Но даже в огромном ... 7 10 6
Info! Золотая раздача, скачанное не засчитывается.
Торрент: Зарегистрирован [2020-01-14 17:36] · скачан: 157 раз
Статус: √ проверено
Размер: 2.05 GB
Как cкачать? Как скачать Курьер через торрент | qTorrent

28-11-2019 20:33  

Отключить всю рекламу на сайте

    Дорогой пользователь! Огромная просьба, поблагодарите релизера, оцените раздачу и оставьте свои комментарий, если Вы скачали Курьер через торрент бесплатно! Внесите свою лепту в развитие PiratBit!
    Комментировать посты могут только пользователи прошедшие не сложную регистрацию
    Показать сообщения:    

    Курьер через торрент
    Скачать бесплатно Курьер
    Курьер скачать торрент
    Курьер смотреть онлайн
    Cкачать фильм Курьер бесплатно
    Курьер скачать торрент в хорошем качестве
    Курьер смотреть онлайн бесплатно в хорошем качестве


    Вы не можете начинать темы
    Вы не можете отвечать на сообщения
    Вы не можете редактировать свои сообщения
    Вы не можете удалять свои сообщения
    Вы не можете голосовать в опросах
    Вы не можете прикреплять файлы к сообщениям
    Вы можете скачивать файлы