Ссылка на приватное зеркало нашего сайта всего за 1$. Внимание количество ограничено!!!

2 сезон

iTunes

1 сезон

1

2 сезон

2 сезон

iTunes

1 сезон

RePack

30

Новинка

ВАЖНО

ИГРА 18+

pack

RePack

MK11
pack

Забери бонус

RePack

jed

!!Акция!!

Alien_Rage

RePack

fifa19

RePack

Assassins Creed: Odyssey

RePack

NEED FOR SPEED™ PAYBACK

4 сезон

9 сезон

Бесстыжие 9 сезон

Все сериалы

все сериалы на PB.wtf

RePack

FAR CRY 5
  

Терминатор: Темные судьбы / Terminator: Dark Fate (Тим Миллер) [2019, фантастика, боевик, приключения, BD Remux 1080p] DUB (rus, ukr) [iTunes] +AVO [Д. Есарев] pb.wtf

Терминатор: Темные судьбы через торрент pb.wtf

Раздают: 1 [ 0 KB/s ]
Размер: 36.07 GB | Добавлен: 10 мес. назад | Торрент скачан:198 раз
Скачать  

17-01-2020 00:02 Терминатор: Темные судьбы Скачать торрент  

Терминатор: Темные судьбы | Terminator: Dark Fate
Год выпуска: 2019
Страна: США, Китай
Студия: Paramount Pictures, Twentieth Century Fox, Skydance Media
Жанр: фантастика, боевик, приключения
Продолжительность: 02:08:05
Перевод:
#1: Дублированный | iTunes
#2: Авторский | Д. Есарев
Субтитры: Русские (Forced, 3 x full), украинские (forced, full), английские

Режиссер: Тим Миллер

rating

В ролях: Арнольд Шварценеггер, Маккензи Дэвис, Эдвард Ферлонг, Линда Хэмилтон, Том Хоппер, Кассандра Старр, Наталия Рейес, Гэбриел Луна, Бретт Азар, Диего Бонета

Описание: Мексика. Милая девушка Даниэла Рамос, а для друзей просто Дани, вместе с братом приходит с утра работать на завод, но там выясняется, что их вскоре заменят автоматикой. И это не единственная угроза, которую представляют для девушки машины: тут же на неё нападает присланная из будущего и практически неубиваемая модель терминатора REV-9. Но на защиту Дани встает Грэйс — тоже прибывшая из будущего женщина, модифицировавшая свои боевые характеристики до терминаторского уровня. Вскоре к ним на помощь придёт и Сара Коннор, которая теперь превратилась в настоящую охотницу на роботов-убийц.

Качество: BD Remux 1080p
Формат: MKV

Видео: MPEG-4 AVC, 1920x1080, 28.7 Mbit/s, 23.976 fps
Аудио #01: 48 kHz, AC3, 5.1, 384 Kbps | Дублированный | RUS |
Аудио #02: 48 kHz, AC3, 5.1, 640 Kbps | Авторский | RUS |
Аудио #03: 48 kHz, DTS-HD MA, 7.1, 5022 Kbps | Авторский | RUS |
Аудио #04: 48 kHz, AC3, 2.0, 192 Kbps | Дублированный | UKR |
Аудио #05: 48 kHz, TrueHD, 7.1, 4634 Kbps | Оригинал | ENG |
Аудио #06: 48 kHz, AC3, 5.1, 640 Kbps | Оригинал | ENG |
скриншот  скриншот  скриншот  скриншот  скриншот  

General
Unique ID : 34449492927846189929035055119295183594 (0x19EABB22CEB501967027782CF129FAEA)
Complete name : E:Video111Terminator.Dark.Fate.2019.BDREMUX.1080p.seleZen.mkv
Format : Matroska
Format version : Version 4
File size : 36.1 GiB
Duration : 2 h 8 min
Overall bit rate mode : Variable
Overall bit rate : 40.3 Mb/s
Movie name : Terminator: Dark Fate (2019) from селезень
Encoded date : UTC 2020-01-30 19:45:57
Writing application : mkvmerge v40.0.0 ('Old Town Road + Pony') 64-bit
Writing library : libebml v1.3.9 + libmatroska v1.5.2
Cover : Yes
Attachments : cover.jpg / cover.jpg

Video
ID : 1
Format : AVC
Format/Info : Advanced Video Codec
Format profile : High@L4.1
Format settings : CABAC / 4 Ref Frames
Format settings, CABAC : Yes
Format settings, Reference : 4 frames
Codec ID : V_MPEG4/ISO/AVC
Duration : 2 h 8 min
Bit rate mode : Variable
Bit rate : 28.7 Mb/s
Maximum bit rate : 33.3 Mb/s
Width : 1 920 pixels
Height : 1 080 pixels
Display aspect ratio : 16:9
Frame rate mode : Constant
Frame rate : 23.976 (24000/1001) FPS
Color space : YUV
Chroma subsampling : 4:2:0
Bit depth : 8 bits
Scan type : Progressive
Bits/(Pixel*Frame) : 0.578
Stream size : 25.7 GiB (71%)
Language : English
Default : Yes
Forced : No

Audio #1
ID : 2
Format : AC-3
Format/Info : Audio Coding 3
Commercial name : Dolby Digital
Codec ID : A_AC3
Duration : 2 h 8 min
Bit rate mode : Constant
Bit rate : 384 kb/s
Channel(s) : 6 channels
Channel layout : L R C LFE Ls Rs
Sampling rate : 48.0 kHz
Frame rate : 31.250 FPS (1536 SPF)
Compression mode : Lossy
Stream size : 352 MiB (1%)
Title : iTunes
Language : Russian
Service kind : Complete Main
Default : Yes
Forced : Yes

Audio #2
ID : 3
Format : AC-3
Format/Info : Audio Coding 3
Commercial name : Dolby Digital
Codec ID : A_AC3
Duration : 2 h 8 min
Bit rate mode : Constant
Bit rate : 640 kb/s
Channel(s) : 6 channels
Channel layout : L R C LFE Ls Rs
Sampling rate : 48.0 kHz
Frame rate : 31.250 FPS (1536 SPF)
Compression mode : Lossy
Stream size : 586 MiB (2%)
Title : AVO [Yesarev]
Language : Russian
Service kind : Complete Main
Default : No
Forced : No

Audio #3
ID : 4
Format : DTS XLL
Format/Info : Digital Theater Systems
Commercial name : DTS-HD Master Audio
Codec ID : A_DTS
Duration : 2 h 8 min
Bit rate mode : Variable
Bit rate : 5 022 kb/s
Channel(s) : 8 channels
Channel layout : C L R LFE Lb Rb Lss Rss
Sampling rate : 48.0 kHz
Frame rate : 93.750 FPS (512 SPF)
Bit depth : 24 bits
Compression mode : Lossless
Stream size : 4.49 GiB (12%)
Title : AVO [Yesarev]
Language : Russian
Default : No
Forced : No

Audio #4
ID : 5
Format : AC-3
Format/Info : Audio Coding 3
Commercial name : Dolby Digital
Codec ID : A_AC3
Duration : 2 h 8 min
Bit rate mode : Constant
Bit rate : 192 kb/s
Channel(s) : 2 channels
Channel layout : L R
Sampling rate : 48.0 kHz
Frame rate : 31.250 FPS (1536 SPF)
Compression mode : Lossy
Stream size : 176 MiB (0%)
Title : iTunes
Language : Ukrainian
Service kind : Complete Main
Default : No
Forced : No

Audio #5
ID : 6
Format : MLP FBA 16-ch
Format/Info : Meridian Lossless Packing FBA with 16-channel presentation
Commercial name : Dolby TrueHD with Dolby Atmos
Codec ID : A_TRUEHD
Duration : 2 h 8 min
Bit rate mode : Variable
Bit rate : 4 634 kb/s
Maximum bit rate : 8 247 kb/s
Channel(s) : 8 channels
Channel layout : L R C LFE Ls Rs Lb Rb
Sampling rate : 48.0 kHz
Frame rate : 1 200.000 FPS (40 SPF)
Compression mode : Lossless
Stream size : 4.15 GiB (11%)
Title : Original
Language : English
Default : No
Forced : No
Number of dynamic objects : 11
Bed channel count : 1 channel
Bed channel configuration : LFE

Audio #6
ID : 7
Format : AC-3
Format/Info : Audio Coding 3
Commercial name : Dolby Digital
Codec ID : A_AC3
Duration : 2 h 8 min
Bit rate mode : Constant
Bit rate : 640 kb/s
Channel(s) : 6 channels
Channel layout : L R C LFE Ls Rs
Sampling rate : 48.0 kHz
Frame rate : 31.250 FPS (1536 SPF)
Compression mode : Lossy
Stream size : 586 MiB (2%)
Language : English
Service kind : Complete Main
Default : No
Forced : No

Text #1
ID : 8
Format : UTF-8
Codec ID : S_TEXT/UTF8
Codec ID/Info : UTF-8 Plain Text
Duration : 2 h 4 min
Bit rate : 4 b/s
Count of elements : 143
Stream size : 4.36 KiB (0%)
Title : Forced [iTunes]
Language : Russian
Default : Yes
Forced : Yes

Text #2
ID : 9
Format : UTF-8
Codec ID : S_TEXT/UTF8
Codec ID/Info : UTF-8 Plain Text
Duration : 2 h 7 min
Bit rate : 49 b/s
Count of elements : 1250
Stream size : 46.2 KiB (0%)
Title : Full [iTunes]
Language : Russian
Default : No
Forced : No

Text #3
ID : 10
Format : UTF-8
Codec ID : S_TEXT/UTF8
Codec ID/Info : UTF-8 Plain Text
Duration : 1 h 57 min
Bit rate : 61 b/s
Count of elements : 1178
Stream size : 53.4 KiB (0%)
Title : Full [Enigma]
Language : Russian
Default : No
Forced : No

Text #4
ID : 11
Format : UTF-8
Codec ID : S_TEXT/UTF8
Codec ID/Info : UTF-8 Plain Text
Duration : 2 h 7 min
Bit rate : 50 b/s
Count of elements : 1250
Stream size : 46.8 KiB (0%)
Title : Full [Fadeev, Levina]
Language : Russian
Default : No
Forced : No

Text #5
ID : 12
Format : UTF-8
Codec ID : S_TEXT/UTF8
Codec ID/Info : UTF-8 Plain Text
Duration : 2 h 4 min
Bit rate : 4 b/s
Count of elements : 139
Stream size : 4.42 KiB (0%)
Title : Forced [iTunes]
Language : Ukrainian
Default : No
Forced : No

Text #6
ID : 13
Format : UTF-8
Codec ID : S_TEXT/UTF8
Codec ID/Info : UTF-8 Plain Text
Duration : 2 h 7 min
Bit rate : 50 b/s
Count of elements : 1239
Stream size : 47.1 KiB (0%)
Title : Full [iTunes]
Language : Ukrainian
Default : No
Forced : No

Text #7
ID : 14
Format : UTF-8
Codec ID : S_TEXT/UTF8
Codec ID/Info : UTF-8 Plain Text
Duration : 1 h 57 min
Bit rate : 31 b/s
Count of elements : 1078
Stream size : 27.2 KiB (0%)
Title : Full
Language : English
Default : No
Forced : No

Text #8
ID : 15
Format : UTF-8
Codec ID : S_TEXT/UTF8
Codec ID/Info : UTF-8 Plain Text
Duration : 1 h 57 min
Bit rate : 39 b/s
Count of elements : 1388
Stream size : 34.3 KiB (0%)
Title : SDH
Language : English
Default : No
Forced : No

Text #9
ID : 16
Format : UTF-8
Codec ID : S_TEXT/UTF8
Codec ID/Info : UTF-8 Plain Text
Duration : 1 h 57 min
Bit rate : 68 b/s
Count of elements : 1388
Stream size : 58.6 KiB (0%)
Title : SDH Colored
Language : English
Default : No
Forced : No

Menu
00:00:00.000 : en:Глава 01
00:04:19.843 : en:Глава 02
00:07:48.927 : en:Глава 03
00:11:47.916 : en:Глава 04
00:16:56.349 : en:Глава 05
00:22:10.663 : en:Глава 06
00:29:00.614 : en:Глава 07
00:33:25.754 : en:Глава 08
00:41:35.493 : en:Глава 09
00:47:02.695 : en:Глава 10
00:53:08.936 : en:Глава 11
00:57:56.807 : en:Глава 12
01:05:02.690 : en:Глава 13
01:13:07.967 : en:Глава 14
01:20:45.591 : en:Глава 15
01:27:29.744 : en:Глава 16
01:32:48.688 : en:Глава 17
01:41:45.850 : en:Глава 18
01:49:35.319 : en:Глава 19
01:57:58.613 : en:Глава 20

pb.wtf



Скачать Терминатор: Темные судьбы через торрент https://i111.fastpic.ru/big/2020/0119/5d/64d13afc14b617bec9a06499d0030a5d.jpg Скачать фильм Терминатор: Темные судьбы через торрент бесплантно в хорошем качестве Описание: Мексика. Милая девушка Даниэла Рамос, а для друзей просто Дани, вместе с братом приходит с утра работать на завод, но там ... 9.6 10 34
Info! Золотая раздача, скачанное не засчитывается.
Торрент: Зарегистрирован [2020-01-30 20:00] · скачан: 198 раз
Статус: √ проверено
Размер: 36.07 GB
Как cкачать? Как скачать Терминатор: Темные судьбы через торрент | qTorrent

% Раздел Тема Автор DL S | L
Ultra HD (UHD: 2K, 4K, 8K) — видео сверхвысокой чёткости [ 48.52 GB ] Терминатор: Темные судьбы / Terminator: Dark Fate [2019 UHD BDRemux 2160p ] bober100 Скачать
4 | 0
Фильмы с авторской озвучкой [ 2.18 GB ] Терминатор: Темные судьбы / Terminator: Dark Fate [2019 HDRip] AVO [Дмитрий Есарев] Twi7ter Скачать
64 | 1
Фильмы 2019-2020 [DVDrip, WEB-DLRip, HDrip] (DUB, MVO) [ 2.13 GB ] Терминатор: Темные судьбы / Terminator: Dark Fate [2019 BDRip] - Twi7ter Скачать
62 | 1
Ultra HD (UHD: 2K, 4K, 8K) — видео сверхвысокой чёткости [ 62.62 GB ] Терминатор: Темные судьбы / Terminator: Dark Fate [2019 UHD BDRemux 2160p ] DUB +AVO [Д. Есарев] bober100 Скачать
1 | 0
Фильмы с авторской озвучкой [ 1.46 GB ] Терминатор: Темные судьбы / Terminator: Dark Fate [2019 HDRip] AVO [Дмитрий Есарев] Twi7ter Скачать
101 | 0
Фильмы [HD 720p, 1080p] (Хороший звук DUB, MVO) [ 11.9 GB ] Терминатор: Темные судьбы / Terminator: Dark Fate [2019 BDRip 1080p] DUB +AVO [Д. Есарев] bober100 Скачать
14 | 0
Фильмы 2019-2020 [DVDrip, WEB-DLRip, HDrip] (DUB, MVO) [ 813 MB ] Терминатор: Темные судьбы / Terminator: Dark Fate [2019 BDRip] bober100 Скачать
3 | 0


Последний раз редактировалось: bober100 (2020-01-30 20:27), всего редактировалось 3 раз(а)

28-11-2019 20:33  

Отключить всю рекламу на сайте

30-01-2020 20:03 Терминатор: Темные судьбы Скачать торрент  

не фильм, а редкое дерьмище.pb.wtf



    Дорогой пользователь! Огромная просьба, поблагодарите релизера, оцените раздачу и оставьте свои комментарий, если Вы скачали Терминатор: Темные судьбы через торрент бесплатно! Внесите свою лепту в развитие PiratBit!
    Комментировать посты могут только пользователи прошедшие не сложную регистрацию
    Показать сообщения:    

    Терминатор: Темные судьбы через торрент
    Скачать бесплатно Терминатор: Темные судьбы
    Терминатор: Темные судьбы скачать торрент
    Терминатор: Темные судьбы смотреть онлайн
    Cкачать фильм Терминатор: Темные судьбы бесплатно
    Терминатор: Темные судьбы скачать торрент в хорошем качестве
    Терминатор: Темные судьбы смотреть онлайн бесплатно в хорошем качестве


    Вы не можете начинать темы
    Вы не можете отвечать на сообщения
    Вы не можете редактировать свои сообщения
    Вы не можете удалять свои сообщения
    Вы не можете голосовать в опросах
    Вы не можете прикреплять файлы к сообщениям
    Вы можете скачивать файлы