Ссылка на приватное зеркало нашего сайта всего за 1$. Внимание количество ограничено!!!

2 сезон

iTunes

1 сезон

1

2 сезон

2 сезон

iTunes

1 сезон

RePack

30

Ultimate

ВАЖНО

ИГРА 18+

pack

RePack

MK11
pack

Забери бонус

RePack

jed

!!Акция!!

Alien_Rage

RePack

fifa19

RePack

Assassins Creed: Odyssey

RePack

NEED FOR SPEED™ PAYBACK

4 сезон

9 сезон

Бесстыжие 9 сезон

Все сериалы

все сериалы на PB.wtf

RePack

FAR CRY 5
  

Последняя пуля / Disturbing the Peace (Йорк Шеклтон) [2020, Боевик, WEB-DL 720p] DUB [iTunes] pb.wtf

Последняя пуля через торрент pb.wtf

Размер: 3.09 GB | Добавлен: 10 мес. назад | Торрент скачан:127 раз
Скачать  

17-01-2020 09:08 Последняя пуля Скачать торрент  

Последняя пуля | Disturbing the Peace Год выпуска: 2020
Страна: США
Студия: Aloe Entertainment, Grodnik /Aloe Productions, Media Finance Capital, Wonderfilm Media
Жанр: Боевик
Продолжительность: 01:30:49
Перевод: Дублированный | iTunes
Субтитры: отсутствуют

Режиссер: Йорк Шеклтон

rating

В ролях: Гай Пирс, Девон Сава, Майкл Беллисарио, Барби Бланк, Дуэйн Камерон, Джейк Гродник, Теренс Дж. Ротоло, Майкл Сироу, Джон Льюис, Келли Грейсон

Описание: Джим Диллон – полицейский из маленького города, который когда-то был техасским рейнджером, пережил трагические события и отказался носить оружие. Он преодолевает свой страх перед стрельбой и снова берет пистолет после того, как в его город врывается опасная банда байкеров.

Качество: WEB-DL 1080p
Формат: MKV

Видео: MPEG-4 AVC, 4107 Кбит/с, 1280x640, 24.000 fps
Аудио #01: 48 kHz, AC3, 5.1, 384 Kbps | Дублированный | RUS |
Аудио #02: 48 kHz, AC3, 5.1, 384 Kbps | Оригинал | ENG |
скриншот  скриншот  скриншот  скриншот  

Общее
Уникальный идентификатор : 182940195078401975288175420848854330936 (0x89A0FFFE40F2ECB4439E415AFB08EE38)
Полное имя : D:\Disturbing.the.Peace.WEB-DL.720p.mkv
Формат : Matroska
Версия формата : Version 4 / Version 2
Размер файла : 3,09 Гбайт
Продолжительность : 1 ч. 30 м.
Общий поток : 4877 Кбит/сек
Название фильма : Disturbing the Peace WEB-DL 720p
Дата кодирования : UTC 2020-01-16 22:48:43
Программа кодирования : mkvmerge v42.0.0 ('Overtime') 64-bit
Библиотека кодирования : libebml v1.3.10 + libmatroska v1.5.2

Видео
Идентификатор : 1
Формат : AVC
Формат/Информация : Advanced Video Codec
Профиль формата : High@L3.1
Параметр CABAC формата : Нет
Параметр RefFrames формата : 2 кадра
Идентификатор кодека : V_MPEG4/ISO/AVC
Продолжительность : 1 ч. 30 м.
Битрейт : 4107 Кбит/сек
Ширина : 1280 пикселей
Высота : 640 пикселей
Соотношение сторон : 2,000
Режим частоты кадров : Постоянный
Частота кадров : 24,000 кадра/сек
Цветовое пространство : YUV
Субдискретизация насыщенности : 4:2:0
Битовая глубина : 8 бит
Тип развёртки : Прогрессивная
Бит/(Пиксели*Кадры) : 0.204
Размер потока : 2,54 Гбайт (82%)
Язык : English
Default : Да
Forced : Нет
Цветовой диапазон : Limited
Основные цвета : BT.709
Характеристики трансфера : BT.709
Коэффициенты матрицы : BT.709

Аудио #1
Идентификатор : 2
Формат : AC-3
Формат/Информация : Audio Coding 3
Расширение режима : CM (complete main)
Параметр Endianness формата : Big
Идентификатор кодека : A_AC3
Продолжительность : 1 ч. 30 м.
Вид битрейта : Постоянный
Битрейт : 384 Кбит/сек
Каналы : 6 каналов
Расположение каналов : Front: L C R, Side: L R, LFE
Частота : 48,0 КГц
Частота кадров : 31,250 кадров/сек (1536 spf)
Метод сжатия : С потерями
Размер потока : 249 Мбайт (8%)
Заголовок : Russian DUB iTunes
Язык : Russian
Default : Да
Forced : Нет

Аудио #2
Идентификатор : 3
Формат : AC-3
Формат/Информация : Audio Coding 3
Расширение режима : CM (complete main)
Параметр Endianness формата : Big
Идентификатор кодека : A_AC3
Продолжительность : 1 ч. 30 м.
Вид битрейта : Постоянный
Битрейт : 384 Кбит/сек
Каналы : 6 каналов
Расположение каналов : Front: L C R, Side: L R, LFE
Частота : 48,0 КГц
Частота кадров : 31,250 кадров/сек (1536 spf)
Метод сжатия : С потерями
Размер потока : 249 Мбайт (8%)
Заголовок : English Original
Язык : English
Default : Нет
Forced : Нет

Меню
00:00:00.000 : en:Глава 1
00:08:13.250 : en:Глава 2
00:16:38.000 : en:Глава 3
00:25:33.875 : en:Глава 4
00:33:59.250 : en:Глава 5
00:42:09.708 : en:Глава 6
00:50:36.541 : en:Глава 7
00:58:45.749 : en:Глава 8
01:06:59.624 : en:Глава 9
01:14:54.832 : en:Глава 10

pb.wtf



Скачать Последняя пуля через торрент https://b.radikal.ru/b32/2001/bb/09b2d252792b.png Скачать фильм Последняя пуля через торрент бесплантно в хорошем качестве Описание: Джим Диллон – полицейский из маленького города, который когда-то был техасским рейнджером, пережил трагические события и ... 8.2 10 5
Торрент: Зарегистрирован [2020-01-17 09:08] · скачан: 127 раз
Статус: √ проверено
Размер: 3.09 GB
Как cкачать? Как скачать Последняя пуля через торрент | qTorrent

% Раздел Тема Автор DL S | L
Фильмы (WEB-DL 720p, 1080p) [ 3.72 GB ] Последняя пуля / Disturbing the Peace [2020 WEB-DL 1080p] bober100 Скачать
4 | 0
Фильмы (Blu-ray, BD-Remux, HDDVD) [ 20.47 GB ] Последняя пуля / Disturbing the Peace [2020 BD Remux 1080p] bober100 Скачать
1 | 0
Фильмы [HD 720p, 1080p] (Хороший звук DUB, MVO) [ 5.03 GB ] Последняя пуля / Disturbing the Peace [2020 BDRip 720p] bober100 Скачать
1 | 0
Фильмы 2019-2020 [DVDrip, WEB-DLRip, HDrip] (DUB, MVO) [ 708 MB ] Последняя пуля / Disturbing the Peace [2020 HDRip ""] coc900 Скачать
1 | 0
Фильмы 2019-2020 [DVDrip, WEB-DLRip, HDrip] (DUB, MVO) [ 747 MB ] Последняя пуля / Disturbing the Peace [2020 WEB-DLRip] bober100 Скачать
1 | 0
Фильмы 2019-2020 [DVDrip, WEB-DLRip, HDrip] (DUB, MVO) [ 1.46 GB ] Последняя пуля / Disturbing the Peace [2020 BDRip] bober100 Скачать
1 | 0

28-11-2019 20:33  

Отключить всю рекламу на сайте

13-02-2020 18:46 Последняя пуля Скачать торрент  

pb.wtf



16-04-2020 16:01 Последняя пуля Скачать торрент  

полное дермищЕ!!! не думал что Гай Пирс может в таком сниматься! :( третий разpb.wtf



    Дорогой пользователь! Огромная просьба, поблагодарите релизера, оцените раздачу и оставьте свои комментарий, если Вы скачали Последняя пуля через торрент бесплатно! Внесите свою лепту в развитие PiratBit!
    Комментировать посты могут только пользователи прошедшие не сложную регистрацию
    Показать сообщения:    

    Последняя пуля через торрент
    Скачать бесплатно Последняя пуля
    Последняя пуля скачать торрент
    Последняя пуля смотреть онлайн
    Cкачать фильм Последняя пуля бесплатно
    Последняя пуля скачать торрент в хорошем качестве
    Последняя пуля смотреть онлайн бесплатно в хорошем качестве


    Вы не можете начинать темы
    Вы не можете отвечать на сообщения
    Вы не можете редактировать свои сообщения
    Вы не можете удалять свои сообщения
    Вы не можете голосовать в опросах
    Вы не можете прикреплять файлы к сообщениям
    Вы можете скачивать файлы