Ссылка на приватное зеркало нашего сайта всего за 1$. Внимание количество ограничено!!!

2 сезон

iTunes

1 сезон

1

2 сезон

2 сезон

iTunes

1 сезон

RePack

30

Новинка

ВАЖНО

ИГРА 18+

pack

RePack

MK11
pack

Забери бонус

RePack

jed

!!Акция!!

Alien_Rage

RePack

fifa19

RePack

Assassins Creed: Odyssey

RePack

NEED FOR SPEED™ PAYBACK

4 сезон

9 сезон

Бесстыжие 9 сезон

Все сериалы

все сериалы на PB.wtf

RePack

FAR CRY 5
  

Идеальный дворец Фердинанда Шеваля / L'incroyable histoire du facteur Cheval (Нильс Тавернье) [2018, Драма, биография, история, WEB-DL 1080p] DUB [iTunes] pb.wtf

Идеальный дворец Фердинанда Шеваля через торрент pb.wtf

Размер: 4.11 GB | Добавлен: 10 мес. назад | Торрент скачан:64 раза
Скачать  

17-01-2020 10:35 Идеальный дворец Фердинанда Шеваля Скачать торрент  

Идеальный дворец Фердинанда Шеваля / L'incroyable histoire du facteur Cheval
Год выпуска: 2018
Страна: Франция, Бельгия
Жанр: Драма, биография, история
Продолжительность: 01:44:23
Перевод: Дублированный | iTunes
Субтитры: отсутствуют

Режиссер: Нильс Тавернье

rating

В ролях: Жак Гамблен, Летиция Каста, Флоранс Томассен, Бернар Ле Кок, Наташа Линдинжер, Зели Риксон, Эрик Савен, Лука Пети Таборелли, Орельен Вик, Жюльен Персонас

Описание: Каждый день почтальон Фердинанд Шеваль проделывал путь в 25-30 километров, доставляя почту в окрестные деревни. Однажды он споткнулся и упал, и его внимание привлек камень причудливой формы. Шеваль забирает «камень преткновения», и ему приходит в голову идея строительства сказочного дворца для своей маленькой дочки.В течение последующих 33 лет он в свободное от работы время на купленном в Отриве небольшом клочке земли возводит удивительное строение, которое называет «идеальным дворцом».

Качество: WEB-DL 1080p
Формат: MKV

Видео: MPEG-4 AVC, 5244 Кбит/с, 1920x1038, 24.000 fps
Аудио: 48 kHz, AC3, 5.1, 384 Kbps | Дублированный | RUS |
скриншот  скриншот  скриншот  скриншот  

General
Unique ID: 205694529938047208924514752667167329130 (0x9ABF53516000FAE0865DB2CCBFA18B6A)
Complete name: Idealnyi.dvorets.Ferdinanda.Shevalya.2018.WEB-DL.1080p.ELEKTRI4KA.UNIONGANG.mkv.mkv
Format: Matroska
Format version: Version 4 / Version 2
File size: 4.11 GiB
Duration: 1 h 44 min
Overall bit rate: 5 630 kb/s
Encoded date: UTC 2020-01-16 22:41:32
Writing application: mkvmerge v8.3.0 ('Over the Horizon') 64bit
Writing library: libebml v1.3.1 + libmatroska v1.4.2

Video
ID: 1
Format: AVC
Format/Info: Advanced Video Codec
Format profile: High@L4
Format settings, CABAC: Yes
Format settings, ReFrames: 4 frames
Codec ID: V_MPEG4/ISO/AVC
Duration: 1 h 44 min
Bit rate: 5 244 kb/s
Width: 1 920 pixels
Height: 1 038 pixels
Display aspect ratio: 1.85:1
Frame rate mode: Constant
Frame rate: 24.000 FPS
Color space: YUV
Chroma subsampling: 4:2:0
Bit depth: 8 bits
Scan type: Progressive
Bits/(Pixel*Frame): 0.110
Stream size: 3.82 GiB (93%)
Title: iTunes (ELEKTRI4KA.UNIONGANG)
Language: English
Default: Yes
Forced: No
Color range: Limited
Color primaries: BT.709
Transfer characteristics: BT.709
Matrix coefficients: BT.709

Audio
ID: 2
Format: AC-3
Format/Info: Audio Coding 3
Mode extension: CM (complete main)
Format settings, Endianness: Big
Codec ID: A_AC3
Duration: 1 h 44 min
Bit rate mode: Constant
Bit rate: 384 kb/s
Channel(s): 6 channels
Channel positions: Front: L C R, Side: L R, LFE
Sampling rate: 48.0 kHz
Frame rate: 31.250 FPS (1536 spf)
Bit depth: 16 bits
Compression mode: Lossy
Stream size: 287 MiB (7%)
Title: iTunes (ELEKTRI4KA.UNIONGANG)
Language: Russian
Default: Yes
Forced: No

Menu
00:00:00.000: en:?????????? 1
00:06:33.916: en:?????????? 2
00:13:22.790: en:?????????? 3
00:20:21.248: en:?????????? 4
00:27:05.913: en:?????????? 5
00:33:13.121: en:?????????? 6
00:43:00.954: en:?????????? 7
00:50:24.204: en:?????????? 8
00:59:18.287: en:?????????? 9
01:04:36.287: en:?????????? 10
01:09:53.287: en:?????????? 11
01:17:09.203: en:?????????? 12
01:23:32.035: en:?????????? 13
01:30:36.160: en:?????????? 14
01:35:47.576: en:?????????? 15
01:40:32.908: en:?????????? 16

pb.wtf



Скачать Идеальный дворец Фердинанда Шеваля через торрент https://a.radikal.ru/a02/2001/85/d45b6afa4014.png Скачать фильм Идеальный дворец Фердинанда Шеваля через торрент бесплантно в хорошем качестве Описание: Каждый день почтальон Фердинанд Шеваль проделывал путь в 25-30 километров, доставляя почту в окрестные деревни. Однажды он ... 9.4 10 5
Торрент: Зарегистрирован [2020-01-17 10:35] · скачан: 64 раз
Статус: √ проверено
Размер: 4.11 GB
Как cкачать? Как скачать Идеальный дворец Фердинанда Шеваля через торрент | qTorrent

28-11-2019 20:33  

Отключить всю рекламу на сайте

    Дорогой пользователь! Огромная просьба, поблагодарите релизера, оцените раздачу и оставьте свои комментарий, если Вы скачали Идеальный дворец Фердинанда Шеваля через торрент бесплатно! Внесите свою лепту в развитие PiratBit!
    Комментировать посты могут только пользователи прошедшие не сложную регистрацию
    Показать сообщения:    

    Идеальный дворец Фердинанда Шеваля через торрент
    Скачать бесплатно Идеальный дворец Фердинанда Шеваля
    Идеальный дворец Фердинанда Шеваля скачать торрент
    Идеальный дворец Фердинанда Шеваля смотреть онлайн
    Cкачать фильм Идеальный дворец Фердинанда Шеваля бесплатно
    Идеальный дворец Фердинанда Шеваля скачать торрент в хорошем качестве
    Идеальный дворец Фердинанда Шеваля смотреть онлайн бесплатно в хорошем качестве


    Вы не можете начинать темы
    Вы не можете отвечать на сообщения
    Вы не можете редактировать свои сообщения
    Вы не можете удалять свои сообщения
    Вы не можете голосовать в опросах
    Вы не можете прикреплять файлы к сообщениям
    Вы можете скачивать файлы