Ссылка на приватное зеркало нашего сайта всего за 1$. Внимание количество ограничено!!!

2 сезон

iTunes

1 сезон

1

2 сезон

2 сезон

iTunes

1 сезон

RePack

30

Ultimate

ВАЖНО

ИГРА 18+

pack

RePack

MK11
pack

Забери бонус

RePack

jed

!!Акция!!

Alien_Rage

RePack

fifa19

RePack

Assassins Creed: Odyssey

RePack

NEED FOR SPEED™ PAYBACK

4 сезон

9 сезон

Бесстыжие 9 сезон

Все сериалы

все сериалы на PB.wtf

RePack

FAR CRY 5
  

Дело Коллини / Der Fall Collini (Марко Кройцпайнтнер) [2019, триллер, драма, криминал, BD Remux 1080p] DUB [iTunes] pb.wtf

Дело Коллини через торрент pb.wtf

Раздают: 1 [ 0 KB/s ]
Размер: 27.56 GB | Добавлен: 10 мес. назад | Торрент скачан:38 раз
Скачать  

17-01-2020 14:47 Дело Коллини Скачать торрент  

Дело Коллини | Der Fall Collini
Год выпуска: 2019
Страна: Германия
Студия: Constantin Film, SevenPictures Film
Жанр: триллер, драма, криминал
Продолжительность: 02:02:47
Перевод: Дублированный | iTunes
Субтитры: Русские (Full [Enigma]), английские

Режиссер: Марко Кройцпайнтнер

rating

В ролях: Элиас ЭмБарек, Хайнер Лаутербах, Александра Мария Лара, Франко Неро, Манфред Цапатка, Яннис Нивёнер, Райнер Бок, Катрин Штрибек, Пиа Стутценштайн, Петер Прагер

Описание: Каспару Лайнену предстоит расследовать запутанное дело непримечательного механика, итальянца Фабрицио Коллини, который на первый взгляд безо всяких мотивов убил немецкого бизнесмена Ханса Майера, после чего сам сдался полиции. Положение вещей осложняется не только молчанием Коллини и более опытным адвокатом, претендующим на пост главного героя, но и его личным причастием к делу: внучка жертвы Йоханна была его юношеской любовью. Однако Лайнену случайно удаётся найти зацепку, благодаря которой он понимает, что столкнулся с крупнейшим судебным скандалом Германии.

Качество: BD Remux 1080p
Формат: MKV

Видео: MPEG-4 AVC, 1920x1080, 29.7 Mbit/s, 24 fps
Аудио #01: 48 kHz, AC3, 5.1, 384 Kbps | iTunes | RUS |
Аудио #02: 48 kHz, DTS-HD HRA, 5.1, 2046 Kbps | Оригинал | GER |
скриншот  скриншот  скриншот  скриншот  скриншот  

General
Unique ID : 305231664229659853315873133931820751262 (0xE5A17AEF24261A847655CFEA15B0199E)
Complete name : E:Video111The.Collini.Case.2019.BDREMUX.1080p.seleZen.mkv
Format : Matroska
Format version : Version 4
File size : 27.6 GiB
Duration : 2 h 2 min
Overall bit rate mode : Variable
Overall bit rate : 32.1 Mb/s
Movie name : The Collini Case 2019 from селезень
Encoded date : UTC 2020-01-19 20:32:19
Writing application : mkvmerge v40.0.0 ('Old Town Road + Pony') 64-bit
Writing library : libebml v1.3.9 + libmatroska v1.5.2

Video
ID : 1
Format : AVC
Format/Info : Advanced Video Codec
Format profile : High@L4.1
Format settings : CABAC / 4 Ref Frames
Format settings, CABAC : Yes
Format settings, Reference : 4 frames
Codec ID : V_MPEG4/ISO/AVC
Duration : 2 h 2 min
Bit rate mode : Variable
Bit rate : 29.7 Mb/s
Maximum bit rate : 38.0 Mb/s
Width : 1 920 pixels
Height : 1 080 pixels
Display aspect ratio : 16:9
Frame rate mode : Constant
Frame rate : 24.000 FPS
Color space : YUV
Chroma subsampling : 4:2:0
Bit depth : 8 bits
Scan type : Progressive
Bits/(Pixel*Frame) : 0.597
Stream size : 25.5 GiB (92%)
Language : German
Default : Yes
Forced : No

Audio #1
ID : 2
Format : AC-3
Format/Info : Audio Coding 3
Commercial name : Dolby Digital
Codec ID : A_AC3
Duration : 2 h 2 min
Bit rate mode : Constant
Bit rate : 384 kb/s
Channel(s) : 6 channels
Channel layout : L R C LFE Ls Rs
Sampling rate : 48.0 kHz
Frame rate : 31.250 FPS (1536 SPF)
Compression mode : Lossy
Stream size : 337 MiB (1%)
Title : iTunes
Language : Russian
Service kind : Complete Main
Default : Yes
Forced : Yes

Audio #2
ID : 3
Format : DTS XBR
Format/Info : Digital Theater Systems
Commercial name : DTS-HD High Resolution Audio
Codec ID : A_DTS
Duration : 2 h 2 min
Bit rate mode : Constant
Bit rate : 2 046 kb/s
Channel(s) : 6 channels
Channel layout : C L R Ls Rs LFE
Sampling rate : 48.0 kHz
Frame rate : 93.750 FPS (512 SPF)
Bit depth : 24 bits
Compression mode : Lossy
Stream size : 1.75 GiB (6%)
Title : Original
Language : German
Default : No
Forced : No

Text #1
ID : 4
Format : UTF-8
Codec ID : S_TEXT/UTF8
Codec ID/Info : UTF-8 Plain Text
Duration : 1 h 56 min
Bit rate : 72 b/s
Count of elements : 966
Stream size : 61.4 KiB (0%)
Title : Full [Enigma]
Language : Russian
Default : No
Forced : No

Text #2
ID : 5
Format : UTF-8
Codec ID : S_TEXT/UTF8
Codec ID/Info : UTF-8 Plain Text
Duration : 1 h 54 min
Bit rate : 42 b/s
Count of elements : 955
Stream size : 35.4 KiB (0%)
Language : English
Default : No
Forced : No

Menu
00:00:00.000 : en:00:00:00.000
00:05:11.250 : en:00:05:11.250
00:13:40.417 : en:00:13:40.417
00:20:14.917 : en:00:20:14.917
00:26:18.583 : en:00:26:18.583
00:33:56.875 : en:00:33:56.875
00:40:25.000 : en:00:40:25.000
00:48:11.583 : en:00:48:11.583
00:58:25.208 : en:00:58:25.208
01:05:15.792 : en:01:05:15.792
01:10:55.500 : en:01:10:55.500
01:20:01.458 : en:01:20:01.458
01:28:08.667 : en:01:28:08.667
01:35:51.208 : en:01:35:51.208
01:43:44.958 : en:01:43:44.958
01:50:53.292 : en:01:50:53.292
01:56:29.542 : en:01:56:29.542
00:10:00.000 : en:00:10:00.000
pb.wtf



Скачать Дело Коллини через торрент https://img16.lostpic.net/2020/01/19/02c34a846ac06fcc62384f3c7eddf069.jpg Скачать фильм Дело Коллини через торрент бесплантно в хорошем качестве Описание: Каспару Лайнену предстоит расследовать запутанное дело непримечательного механика, итальянца Фабрицио Коллини, который на первый ... 9.4 10 8
Торрент: Зарегистрирован [2020-01-19 20:46] · скачан: 38 раз
Статус: √ проверено
Размер: 27.56 GB
Как cкачать? Как скачать Дело Коллини через торрент | qTorrent

% Раздел Тема Автор DL S | L
Фильмы [HD 720p, 1080p] (Хороший звук DUB, MVO) [ 10.12 GB ] Дело Коллини / Der Fall Collini [2019 BDRip 1080p] bober100 Скачать
1 | 0
Фильмы 2019-2020 [DVDrip, WEB-DLRip, HDrip] (DUB, MVO) [ 2.13 GB ] Дело Коллини / Der Fall Collini [2019 BDRip] - Twi7ter Скачать
10 | 0
Фильмы 2019-2020 [DVDrip, WEB-DLRip, HDrip] (DUB, MVO) [ 1.46 GB ] Дело Коллини / Der Fall Collini [2019 BDRip] - Twi7ter Скачать
8 | 0
Фильмы 2019-2020 [DVDrip, WEB-DLRip, HDrip] (DUB, MVO) [ 747 MB ] Дело Коллини / Der Fall Collini [2019 HDRip] bober100 Скачать
1 | 0
Фильмы 2019-2020 [DVDrip, WEB-DLRip, HDrip] (DUB, MVO) [ 2.13 GB ] Дело Коллини / Der Fall Collini [2019 BDRip] bober100 Скачать
1 | 0
Фильмы [HD 720p, 1080p] (Хороший звук DUB, MVO) [ 4.84 GB ] Дело Коллини / Der Fall Collini [2019 BDRip 720p] bober100 Скачать
2 | 0
Фильмы 2019-2020 [DVDrip, WEB-DLRip, HDrip] (DUB, MVO) [ 1.46 GB ] Дело Коллини / Der Fall Collini [2019 BDRip] bober100 Скачать
1 | 0

28-11-2019 20:33  

Отключить всю рекламу на сайте

    Дорогой пользователь! Огромная просьба, поблагодарите релизера, оцените раздачу и оставьте свои комментарий, если Вы скачали Дело Коллини через торрент бесплатно! Внесите свою лепту в развитие PiratBit!
    Комментировать посты могут только пользователи прошедшие не сложную регистрацию
    Показать сообщения:    

    Дело Коллини через торрент
    Скачать бесплатно Дело Коллини
    Дело Коллини скачать торрент
    Дело Коллини смотреть онлайн
    Cкачать фильм Дело Коллини бесплатно
    Дело Коллини скачать торрент в хорошем качестве
    Дело Коллини смотреть онлайн бесплатно в хорошем качестве


    Вы не можете начинать темы
    Вы не можете отвечать на сообщения
    Вы не можете редактировать свои сообщения
    Вы не можете удалять свои сообщения
    Вы не можете голосовать в опросах
    Вы не можете прикреплять файлы к сообщениям
    Вы можете скачивать файлы