Ссылка на приватное зеркало нашего сайта всего за 1$. Внимание количество ограничено!!!

2 сезон

iTunes

1 сезон

1

2 сезон

2 сезон

iTunes

1 сезон

RePack

30

Ultimate

ВАЖНО

ИГРА 18+

pack

RePack

MK11
pack

Забери бонус

RePack

jed

!!Акция!!

Alien_Rage

RePack

fifa19

RePack

Assassins Creed: Odyssey

RePack

NEED FOR SPEED™ PAYBACK

4 сезон

9 сезон

Бесстыжие 9 сезон

Все сериалы

все сериалы на PB.wtf

RePack

FAR CRY 5
  

Дельфин Берни 2 / Bernie the Dolphin 2 (Кирк Харрис) [2019, боевик, комедия, семейный, WEB-DL 1080p] DUB [iTunes] pb.wtf

Дельфин Берни 2 через торрент pb.wtf

Раздают: 1 [ 0 KB/s ]
Размер: 3.66 GB | Добавлен: 10 мес. назад | Торрент скачан:44 раза
Скачать  

17-01-2020 15:02 Дельфин Берни 2 Скачать торрент  

Дельфин Берни 2 | Bernie the Dolphin 2
Год выпуска: 2019
Страна: Канада, США
Студия: AIC Studios, Digital Caviar, Magnolia Financial Group
Жанр: боевик, комедия, семейный
Продолжительность: 01:38:55
Перевод: Дублированный | iTunes
Субтитры: Английские (Full)

Режиссер: Кирк Харрис

rating

В ролях: Кевин Сорбо, Патрик Малдун, Логан Аллен, Томми Роуз, Винсент Де Пол, Дахлия Леголт, Лола Султан, Лили Кардон, Дарла Делгадо, Рики Уэйн

Описание: Во Флориде наступило лето, а вместе с ним и каникулы. Герои намерены провести его с удовольствием и пользой. Кевин снимает видео и записывает подкасты, а Холли работает помощником дрессировщика в океанариуме, где, кстати, появился дельфин-новичок.
Внезапно дельфин Берни возвращается. Также выходит из тюрьмы их старый враг Уинстон, который вместе с корыстными подельниками что-то снова замышляет. Ребятам при помощи своего верного друга предстоит сорвать коварный план мести.

Качество: WEB-DL 1080p
Формат: MKV

Видео: 1912x808 (2,35:1), 23,976 fps, MPEG-4 AVC ~ 4521 Kbps avg, 0.122 bit/pixel
Аудио: AC3, 48 kHz, 6 ch, ~384.00 kbps avg | русский | iTunes
Аудио: AC3, 48 kHz, 6 ch, ~384.00 kbps avg | английский | Оригинал
скриншот  скриншот  скриншот  скриншот  скриншот  

Общее
Уникальный идентификатор : 96682144307402212681653213639887657746 (0x48BC4DBE08612E0CE1E032B5E7759B12)
Полное имя : BERNIE_AND_DOLPHIN_2 (2019) WEB-DL 1080p.mkv
Формат : Matroska
Версия формата : Version 4
Размер файла : 3,66 Гбайт
Продолжительность : 1 ч. 38 м.
Общий поток : 5290 Кбит/сек
Название фильма : Дельфин Берни 2 / Bernie the Dolphin 2 (2019)
Дата кодирования : UTC 2020-01-20 07:04:33
Программа кодирования : mkvmerge v41.0.0 ('Smarra') 64-bit
Библиотека кодирования : libebml v1.3.9 + libmatroska v1.5.2
Обложка : Yes
Attachments : cover.jpg / cover.jpg

Видео
Идентификатор : 1
Формат : AVC
Формат/Информация : Advanced Video Codec
Профиль формата : High@L4
Настройки формата : CABAC / 5 Ref Frames
Параметр CABAC формата : Да
Параметр RefFrames формата : 5 кадров
Идентификатор кодека : V_MPEG4/ISO/AVC
Продолжительность : 1 ч. 38 м.
Битрейт : 4521 Кбит/сек
Ширина : 1912 пикселей
Высота : 808 пикселей
Соотношение сторон : 2,35:1
Режим частоты кадров : Постоянный
Частота кадров : 23,976 кадра/сек
Цветовое пространство : YUV
Субдискретизация насыщенности : 4:2:0
Битовая глубина : 8 бит
Тип развёртки : Прогрессивная
Бит/(Пиксели*Кадры) : 0.122
Размер потока : 3,12 Гбайт (85%)
Заголовок : BERNIE_AND_DOLPHIN_2 (2019) WEB-DL 1080p
Язык : English
Default : Да
Forced : Нет
Цветовой диапазон : Limited
Основные цвета : BT.709
Характеристики трансфера : BT.709
Коэффициенты матрицы : BT.709

Аудио #1
Идентификатор : 2
Формат : AC-3
Формат/Информация : Audio Coding 3
Коммерческое название : Dolby Digital
Идентификатор кодека : A_AC3
Продолжительность : 1 ч. 38 м.
Вид битрейта : Постоянный
Битрейт : 384 Кбит/сек
Каналы : 6 каналов
ChannelLayout : L R C LFE Ls Rs
Частота : 48,0 КГц
Частота кадров : 31,250 кадров/сек (1536 SPF)
Метод сжатия : С потерями
Задержка видео : -42 мс.
Размер потока : 272 Мбайт (7%)
Заголовок : iTunes
Язык : Russian
Default : Да
Forced : Да

Аудио #2
Идентификатор : 3
Формат : AC-3
Формат/Информация : Audio Coding 3
Коммерческое название : Dolby Digital
Идентификатор кодека : A_AC3
Продолжительность : 1 ч. 38 м.
Вид битрейта : Постоянный
Битрейт : 384 Кбит/сек
Каналы : 6 каналов
ChannelLayout : L R C LFE Ls Rs
Частота : 48,0 КГц
Частота кадров : 31,250 кадров/сек (1536 SPF)
Метод сжатия : С потерями
Задержка видео : -42 мс.
Размер потока : 272 Мбайт (7%)
Язык : English
Default : Нет
Forced : Нет

Текст
Идентификатор : 4
Формат : UTF-8
Идентификатор кодека : S_TEXT/UTF8
Идентификатор кодека/Информация : UTF-8 Plain Text
Продолжительность : 1 ч. 35 м.
Битрейт : 80 бит/сек
ElementCount : 1410
Размер потока : 55,8 Кбайт (0%)
Заголовок : Full
Язык : English
Default : Нет
Forced : Нет

Меню
00:00:00.000 : en:1
00:01:31.000 : en:2
00:11:47.000 : en:3
00:22:49.000 : en:4
00:32:16.000 : en:5
00:42:41.000 : en:6
00:52:25.000 : en:7
01:02:13.000 : en:8
01:11:39.000 : en:9
01:22:50.000 : en:10
01:35:09.000 : en:11

pb.wtf



Скачать Дельфин Берни 2 через торрент https://c.radikal.ru/c21/2001/a8/7f18b5700d76.png Скачать фильм Дельфин Берни 2 через торрент бесплантно в хорошем качестве Описание: Во Флориде наступило лето, а вместе с ним и каникулы. Герои намерены провести его с удовольствием и пользой. Кевин снимает видео ... 10 10 2
Торрент: Зарегистрирован [2020-01-20 07:27] · скачан: 44 раз
Статус: √ проверено
Размер: 3.66 GB
Как cкачать? Как скачать Дельфин Берни 2 через торрент | qTorrent

% Раздел Тема Автор DL S | L
Фильмы 2019-2020 [DVDrip, WEB-DLRip, HDrip] (DUB, MVO) [ 1.46 GB ] Дельфин Берни 2 / Bernie the Dolphin 2 [2019 BDRip] bober100 Скачать
1 | 0

28-11-2019 20:33  

Отключить всю рекламу на сайте

    Дорогой пользователь! Огромная просьба, поблагодарите релизера, оцените раздачу и оставьте свои комментарий, если Вы скачали Дельфин Берни 2 через торрент бесплатно! Внесите свою лепту в развитие PiratBit!
    Комментировать посты могут только пользователи прошедшие не сложную регистрацию
    Показать сообщения:    

    Дельфин Берни 2 через торрент
    Скачать бесплатно Дельфин Берни 2
    Дельфин Берни 2 скачать торрент
    Дельфин Берни 2 смотреть онлайн
    Cкачать фильм Дельфин Берни 2 бесплатно
    Дельфин Берни 2 скачать торрент в хорошем качестве
    Дельфин Берни 2 смотреть онлайн бесплатно в хорошем качестве


    Вы не можете начинать темы
    Вы не можете отвечать на сообщения
    Вы не можете редактировать свои сообщения
    Вы не можете удалять свои сообщения
    Вы не можете голосовать в опросах
    Вы не можете прикреплять файлы к сообщениям
    Вы можете скачивать файлы