Всегда рабочее зеркало без VPN и Proxy просто перед .vidak.icu напиши любое слово или цифру, Пример http://ek1x.vidak.icu

MVO

Лицензия

1 сезон

1

1 сезон

iTunes

1 сезон

13

1 сезон

Deluxe

pack

Рекомендуем

Пиратка

30

ВАЖНО

RePack

MK11

RePack

jed

RePack

fifa19

RePack

RDR2

RePack

NEED FOR SPEED™ PAYBACK

Кинопоиск HD

6 сезон

 Острые козырьки 6 сезон

Все сериалы

все сериалы на PB.wtf

RePack

FAR CRY 5
  
Magnet ссылка

Дракула / Dracula / Сезон: 1 / Серии: 1-3 из 3 (Джонни Кэмпбелл, Пол МакГиган, Дэймон Томас) [2020, Ужасы, драма, WEB-DL 1080p] MVO [TVShows] pb.wtf

Дракула через торрент pb.wtf

Размер: 30.42 GB | Добавлен: 2 года 5 мес. назад | Торрент скачан:15 раз
Смотреть онлайн Дракула | Скачать    Ребята, помогите собрать деньги на оплату серверов!!!

17-01-2020 16:10 Дракула Скачать торрент  

Дракула | Dracula
Год выпуска: 2020
Страна: Великобритания
Жанр: Ужасы, драма
Продолжительность: ~ 01:28:00
Перевод: Профессиональный (многоголосый) | TVShows
Субтитры: Английские

Режиссер: Джонни Кэмпбелл, Пол МакГиган, Дэймон Томас

rating


В ролях: Клас Банг, Долли Уэллс, Джон Хеффернан, Джоэнна Скэнлэн, Морфидд Кларк, Луиза Рихтер, Линдси Маршал, Коррина Уилсон, Марк Гейтисс, Мэттью Бирд

Описание: Трансильвания, 1897 год. Дракула, граф-кровопийца, строит грандиозные планы по захвату викторианского Лондона. Будьте начеку: мертвецы наступают, и очень быстро.

Качество: WEB-DL 1080p
Формат: MKV

Видео: MPEG-4 AVC, 1920x1080, 25 fps, ~16.2 Mb/s
Аудио №1: AC3, 48,0 kHz, 6 ch, 384 kbps | TVShows
Аудио №2: E-AC3+Atmos, 48,0 kHz, 6 ch, 768 kbps | Original
скриншот  скриншот  скриншот  скриншот  

General
Unique ID : 97037477721350047022592444651613340331 (0x4900BD0840031BA8A3FD7770987642AB)
Complete name : Dracula.S01E01.1080p.TVShows.mkv
Format : Matroska
Format version : Version 4
File size : 11.1 GiB
Duration : 1 h 29 min
Overall bit rate : 17.7 Mb/s
Encoded date : UTC 2020-01-17 12:05:39
Writing application : mkvmerge v33.1.0 ('Primrose') 64-bit
Writing library : libebml v1.3.7 + libmatroska v1.5.0
IsTruncated : Yes

Video
ID : 1
Format : AVC
Format/Info : Advanced Video Codec
Format profile : High@L4.1
Format settings : CABAC / 4 Ref Frames
Format settings, CABAC : Yes
Format settings, Reference frames : 4 frames
Codec ID : V_MPEG4/ISO/AVC
Duration : 1 h 29 min
Bit rate : 16.2 Mb/s
Width : 1 920 pixels
Height : 1 080 pixels
Display aspect ratio : 16:9
Frame rate mode : Constant
Frame rate : 25.000 FPS
Color space : YUV
Chroma subsampling : 4:2:0
Bit depth : 8 bits
Scan type : Progressive
Bits/(Pixel*Frame) : 0.312
Stream size : 10.1 GiB (91%)
Writing library : x264 core 157 r2969 d4099dd
Encoding settings : cabac=1 / ref=4 / deblock=1:-3:-3 / analyse=0x3:0x133 / me=umh / subme=10 / psy=1 / psy_rd=1.00:0.15 / mixed_ref=1 / me_range=48 / chroma_me=1 / trellis=2 / 8x8dct=1 / cqm=0 / deadzone=21,11 / fast_pskip=0 / chroma_qp_offset=-3 / threads=12 / lookahead_threads=2 / sliced_threads=0 / nr=0 / decimate=0 / interlaced=0 / bluray_compat=0 / constrained_intra=0 / bframes=8 / b_pyramid=2 / b_adapt=2 / b_bias=0 / direct=3 / weightb=1 / open_gop=0 / weightp=2 / keyint=250 / keyint_min=25 / scenecut=40 / intra_refresh=0 / rc=crf / mbtree=0 / crf=19.0 / qcomp=0.60 / qpmin=0 / qpmax=69 / qpstep=4 / ip_ratio=1.30 / pb_ratio=1.20 / aq=3:0.80
Language : English
Default : Yes
Forced : No

Audio #1
ID : 2
Format : AC-3
Format/Info : Audio Coding 3
Commercial name : Dolby Digital
Codec ID : A_AC3
Duration : 1 h 29 min
Bit rate mode : Constant
Bit rate : 384 kb/s
Channel(s) : 6 channels
Channel layout : L R C LFE Ls Rs
Sampling rate : 48.0 kHz
Frame rate : 31.250 FPS (1536 SPF)
Compression mode : Lossy
Stream size : 246 MiB (2%)
Title : TVShows
Language : Russian
Service kind : Complete Main
Default : Yes
Forced : Yes

Audio #2
ID : 3
Format : E-AC-3 JOC
Format/Info : Enhanced AC-3 with Joint Object Coding
Commercial name : Dolby Digital Plus with Dolby Atmos
Codec ID : A_EAC3
Duration : 1 h 29 min
Bit rate mode : Constant
Bit rate : 768 kb/s
Channel(s) : 6 channels
Channel layout : L R C LFE Ls Rs
Sampling rate : 48.0 kHz
Frame rate : 31.250 FPS (1536 SPF)
Compression mode : Lossy
Stream size : 492 MiB (4%)
Title : Original
Language : English
Service kind : Complete Main
Default : No
Forced : No
Complexity index : 16
Number of dynamic objects : 15
Bed channel count : 1 channel
Bed channel configuration : LFE

Text
ID : 4
Format : UTF-8
Codec ID : S_TEXT/UTF8
Codec ID/Info : UTF-8 Plain Text
Title : English
Language : English
Default : No
Forced : No

Внимание! Раздача ведётся путём добавления новых серий; при каждом добавлении создаётся новый торрент. Чтобы начать докачку новой серии, пользователям необходимо сделать следующее:
(1) остановить скачивание,
(2) удалить старый торрент у себя из клиента (старые серии удалять не надо),
(3) скачать новый торрент и запустить его у себя в клиенте вместо старого, при этом указать клиенту путь в старую папку куда и должно происходить скачивание новых серий.

Ваш клиент при этом должен произвести хеширование (проверку) старой папки (если не производит сам - помогите ему сделать это), и будет докачивать только те серии которых у вас ещё нет. Старые серии при этом не удаляются, а продолжают раздаваться!

Eсли вы уже удалили старые серии, то предотвратить повторную закачку старых серий можно, отжав галочку в соответсвующих местах при запуске нового торрента. По возможности, желательно не удалять старые серии как можно дольше чтобы релизёр не столько продолжал раздавать старые серии, а смог сконцентрироваться на новых.
pb.wtf



Скачать Дракула через торрент https://b.radikal.ru/b34/2001/cc/5a9930167882.png Скачать, смотреть онлайн Дракула бесплантно в хорошем качестве Описание: Трансильвания, 1897 год. Дракула, граф-кровопийца, строит грандиозные планы по захвату викторианского Лондона. Будьте начеку: ... 10 10 3
Торрент: Зарегистрирован [2020-01-18 14:50] · скачан: 15 раз
Статус: √ проверено
Размер: 30.42 GB
Как cкачать? Как скачать Дракула через торрент | UTorrent

% Раздел Тема Автор DL S | L
Зарубежные сериалы [ 17.89 GB ] Дракула / Dracula / Сезон: 1 / Серии: 1-3 из 3 [2020 WEB-DL 720p] MVO [TVShows] bober100 Скачать
1 | 0
Зарубежные сериалы [ 4.55 GB ] Дракула / Dracula / Сезон: 1 / Серии: 1-3 из 3 [2020 WEB-DL 720p] MVO [Jaskier] bober100 Скачать
1 | 0
Зарубежные сериалы [ 9.27 GB ] Дракула / Dracula / Сезон: 1 / Серии: 1-3 из 3 [2020 WEB-DL 1080p] MVO [Jaskier] bober100 Скачать
1 | 0
Зарубежные сериалы [ 3.13 GB ] Дракула / Dracula / Сезон: 1 / Серии: 1-3 из 3 [2020 WEB-DLRip] MVO [Jaskier] bober100 Скачать
1 | 0
Зарубежные сериалы [ 87.77 GB ] Дракула / Dracula / Сезон: 1 / Серии: 1-3 из 3 [2020 UHD WEBRip 2160p] DUB [Невафильм / Netflix] bober100 Скачать
1 | 0
Зарубежные сериалы [ 7.73 GB ] Дракула / Dracula / Сезон: 1 / Серии: 1- из 3 [2020 WEBRip 720p] DUB [Невафильм / Netflix] +3xMVO bober100 Скачать
1 | 0
Зарубежные сериалы [ 4.39 GB ] Дракула / Dracula / Сезон: 1 / Серии: 1-3 из 3 [2020 WEB-DLRip] - [Невафильм / Netflix] Twi7ter Скачать
1 | 0

28-11-2019 20:33  

Отключить всю рекламу на сайте

    Дорогой пользователь! Огромная просьба, поблагодарите релизера, оцените раздачу и оставьте свои комментарий, если Вы скачали Дракула через торрент бесплатно!
    Комментировать посты могут только пользователи прошедшие не сложную регистрацию
    Показать сообщения:    

    Дракула через торрент
    Скачать бесплатно Дракула
    Дракула скачать торрент
    Дракула смотреть онлайн
    Cкачать фильм Дракула бесплатно
    Дракула скачать торрент в хорошем качестве
    Дракула смотреть онлайн бесплатно в хорошем качестве


    Вы не можете начинать темы
    Вы не можете отвечать на сообщения
    Вы не можете редактировать свои сообщения
    Вы не можете удалять свои сообщения
    Вы не можете голосовать в опросах
    Вы не можете прикреплять файлы к сообщениям
    Вы можете скачивать файлы