Всегда рабочее зеркало без VPN и Proxy просто перед .vidak.icu напиши любое слово или цифру, Пример http://8jqz.vidak.icu

MVO

Лицензия

1 сезон

1

1 сезон

iTunes

1 сезон

13

1 сезон

Deluxe

pack

Рекомендуем

Пиратка

30

ВАЖНО

RePack

MK11

RePack

jed

RePack

fifa19

RePack

RDR2

RePack

NEED FOR SPEED™ PAYBACK

Кинопоиск HD

6 сезон

 Острые козырьки 6 сезон

Все сериалы

все сериалы на PB.wtf

RePack

FAR CRY 5
  
Magnet ссылка

Дракула / Dracula / Сезон: 1 / Серии: 1-3 из 3 (Джонни Кэмпбелл, Пол МакГиган, Дэймон Томас) [2020, Ужасы, драма, WEB-DL 720p] MVO [TVShows] pb.wtf

Дракула через торрент pb.wtf

Размер: 17.89 GB | Добавлен: 2 года 5 мес. назад | Торрент скачан:10 раз
Смотреть онлайн Дракула | Скачать    Ребята, помогите собрать деньги на оплату серверов!!!

17-01-2020 20:45 Дракула Скачать торрент  

Дракула | Dracula
Год выпуска: 2020
Страна: Великобритания
Жанр: Ужасы, драма
Продолжительность: ~ 01:28:00
Перевод: Профессиональный (многоголосый) | TVShows
Субтитры: Английские

Режиссер: Джонни Кэмпбелл, Пол МакГиган, Дэймон Томас

rating


В ролях: Клас Банг, Долли Уэллс, Джон Хеффернан, Джоэнна Скэнлэн, Морфидд Кларк, Луиза Рихтер, Линдси Маршал, Коррина Уилсон, Марк Гейтисс, Мэттью Бирд

Описание: Трансильвания, 1897 год. Дракула, граф-кровопийца, строит грандиозные планы по захвату викторианского Лондона. Будьте начеку: мертвецы наступают, и очень быстро.

Качество: WEB-DL 720p
Формат: MKV

Видео: AVC, 1280x720 (16:9), 25 fps, ~ 10000 Kbps
Аудио №1: AC3, 48,0 kHz, 6 ch, 384 kbps | TVShows
Аудио №2: EAC3+Atmos, 48,0 kHz, 6 ch, 768 kbps | Original
скриншот  скриншот  скриншот  скриншот  скриншот  

Общее
Уникальный идентификатор : 255456919511962260731333967996624459585 (0xC02F368C56BE6E2D64EE6B4A8C325741)
Полное имя : D:\Dracula.S01.720p.TVShows\Dracula.S01E01.720p.TVShows.mkv
Формат : Matroska
Версия формата : Version 4 / Version 2
Размер файла : 6,91 Гбайт
Продолжительность : 1 ч. 29 м.
Общий поток : 11,0 Мбит/сек
Дата кодирования : UTC 2020-01-17 12:07:07
Программа кодирования : mkvmerge v33.1.0 ('Primrose') 64-bit
Библиотека кодирования : libebml v1.3.7 + libmatroska v1.5.0

Видео
Идентификатор : 1
Формат : AVC
Формат/Информация : Advanced Video Codec
Профиль формата : High@L4.1
Параметр CABAC формата : Да
Параметр RefFrames формата : 9 кадров
Идентификатор кодека : V_MPEG4/ISO/AVC
Продолжительность : 1 ч. 29 м.
Битрейт : 9885 Кбит/сек
Ширина : 1280 пикселей
Высота : 720 пикселей
Соотношение сторон : 16:9
Режим частоты кадров : Постоянный
Частота кадров : 25,000 кадров/сек
Цветовое пространство : YUV
Субдискретизация насыщенности : 4:2:0
Битовая глубина : 8 бит
Тип развёртки : Прогрессивная
Бит/(Пиксели*Кадры) : 0.429
Размер потока : 6,18 Гбайт (90%)
Библиотека кодирования : x264 core 157 r2969 d4099dd
Настройки программы : cabac=1 / ref=9 / deblock=1:-3:-3 / analyse=0x3:0x133 / me=umh / subme=10 / psy=1 / psy_rd=1.00:0.15 / mixed_ref=1 / me_range=48 / chroma_me=1 / trellis=2 / 8x8dct=1 / cqm=0 / deadzone=21,11 / fast_pskip=0 / chroma_qp_offset=-3 / threads=12 / lookahead_threads=2 / sliced_threads=0 / nr=0 / decimate=0 / interlaced=0 / bluray_compat=0 / constrained_intra=0 / bframes=8 / b_pyramid=2 / b_adapt=2 / b_bias=0 / direct=3 / weightb=1 / open_gop=0 / weightp=2 / keyint=250 / keyint_min=25 / scenecut=40 / intra_refresh=0 / rc=crf / mbtree=0 / crf=17.0 / qcomp=0.60 / qpmin=0 / qpmax=69 / qpstep=4 / ip_ratio=1.30 / pb_ratio=1.20 / aq=3:0.80
Язык : English
Default : Да
Forced : Нет

Аудио #1
Идентификатор : 2
Формат : AC-3
Формат/Информация : Audio Coding 3
Расширение режима : CM (complete main)
Параметр Endianness формата : Big
Идентификатор кодека : A_AC3
Продолжительность : 1 ч. 29 м.
Вид битрейта : Постоянный
Битрейт : 384 Кбит/сек
Каналы : 6 каналов
Расположение каналов : Front: L C R, Side: L R, LFE
Частота : 48,0 КГц
Частота кадров : 31,250 кадров/сек (1536 spf)
Метод сжатия : С потерями
Размер потока : 246 Мбайт (3%)
Заголовок : TVShows
Язык : Russian
Default : Да
Forced : Да

Аудио #2
Идентификатор : 3
Формат : E-AC-3
Формат/Информация : Audio Coding 3
Параметр Endianness формата : Big
Идентификатор кодека : A_EAC3
Продолжительность : 1 ч. 29 м.
Вид битрейта : Постоянный
Битрейт : 768 Кбит/сек
Каналы : 6 каналов
Расположение каналов : Front: L C R, Side: L R, LFE
Частота : 48,0 КГц
Частота кадров : 187,500 кадров/сек (256 spf)
Метод сжатия : С потерями
Размер потока : 492 Мбайт (7%)
Заголовок : Original
Язык : English
Default : Нет
Forced : Нет

Текст
Идентификатор : 4
Формат : UTF-8
Идентификатор кодека : S_TEXT/UTF8
Идентификатор кодека/Информация : UTF-8 Plain Text
Продолжительность : 1 ч. 27 м.
Битрейт : 54 бит/сек
ElementCount : 1150
Размер потока : 34,6 Кбайт (0%)
Заголовок : English
Язык : English
Default : Нет
Forced : Нет

Внимание! Раздача ведётся путём добавления новых серий; при каждом добавлении создаётся новый торрент. Чтобы начать докачку новой серии, пользователям необходимо сделать следующее:
(1) остановить скачивание,
(2) удалить старый торрент у себя из клиента (старые серии удалять не надо),
(3) скачать новый торрент и запустить его у себя в клиенте вместо старого, при этом указать клиенту путь в старую папку куда и должно происходить скачивание новых серий.

Ваш клиент при этом должен произвести хеширование (проверку) старой папки (если не производит сам - помогите ему сделать это), и будет докачивать только те серии которых у вас ещё нет. Старые серии при этом не удаляются, а продолжают раздаваться!

Eсли вы уже удалили старые серии, то предотвратить повторную закачку старых серий можно, отжав галочку в соответсвующих местах при запуске нового торрента. По возможности, желательно не удалять старые серии как можно дольше чтобы релизёр не столько продолжал раздавать старые серии, а смог сконцентрироваться на новых.
pb.wtf



Скачать Дракула через торрент https://b.radikal.ru/b34/2001/cc/5a9930167882.png Скачать, смотреть онлайн Дракула бесплантно в хорошем качестве Описание: Трансильвания, 1897 год. Дракула, граф-кровопийца, строит грандиозные планы по захвату викторианского Лондона. Будьте начеку: ... 10 10 2
Торрент: Зарегистрирован [2020-01-18 14:03] · скачан: 10 раз
Статус: √ проверено
Размер: 17.89 GB
Как cкачать? Как скачать Дракула через торрент | UTorrent

% Раздел Тема Автор DL S | L
Зарубежные сериалы [ 30.42 GB ] Дракула / Dracula / Сезон: 1 / Серии: 1-3 из 3 [2020 WEB-DL 1080p] MVO [TVShows] bober100 Скачать
1 | 0
Зарубежные сериалы [ 4.55 GB ] Дракула / Dracula / Сезон: 1 / Серии: 1-3 из 3 [2020 WEB-DL 720p] MVO [Jaskier] bober100 Скачать
1 | 0
Зарубежные сериалы [ 9.27 GB ] Дракула / Dracula / Сезон: 1 / Серии: 1-3 из 3 [2020 WEB-DL 1080p] MVO [Jaskier] bober100 Скачать
1 | 0
Зарубежные сериалы [ 3.13 GB ] Дракула / Dracula / Сезон: 1 / Серии: 1-3 из 3 [2020 WEB-DLRip] MVO [Jaskier] bober100 Скачать
1 | 0
Зарубежные сериалы [ 87.77 GB ] Дракула / Dracula / Сезон: 1 / Серии: 1-3 из 3 [2020 UHD WEBRip 2160p] DUB [Невафильм / Netflix] bober100 Скачать
1 | 0
Зарубежные сериалы [ 7.73 GB ] Дракула / Dracula / Сезон: 1 / Серии: 1- из 3 [2020 WEBRip 720p] DUB [Невафильм / Netflix] +3xMVO bober100 Скачать
1 | 0
Зарубежные сериалы [ 4.39 GB ] Дракула / Dracula / Сезон: 1 / Серии: 1-3 из 3 [2020 WEB-DLRip] - [Невафильм / Netflix] Twi7ter Скачать
1 | 0

28-11-2019 20:33  

Отключить всю рекламу на сайте

    Дорогой пользователь! Огромная просьба, поблагодарите релизера, оцените раздачу и оставьте свои комментарий, если Вы скачали Дракула через торрент бесплатно!
    Комментировать посты могут только пользователи прошедшие не сложную регистрацию
    Показать сообщения:    

    Дракула через торрент
    Скачать бесплатно Дракула
    Дракула скачать торрент
    Дракула смотреть онлайн
    Cкачать фильм Дракула бесплатно
    Дракула скачать торрент в хорошем качестве
    Дракула смотреть онлайн бесплатно в хорошем качестве


    Вы не можете начинать темы
    Вы не можете отвечать на сообщения
    Вы не можете редактировать свои сообщения
    Вы не можете удалять свои сообщения
    Вы не можете голосовать в опросах
    Вы не можете прикреплять файлы к сообщениям
    Вы можете скачивать файлы