Достать ножи: Стеклянная луковица

MVO

Добыча

Дубляж

Уэнсдэй

1 сезон

Тор

Дубляж

13 клиническая

1 сезон

Жестокая ночь

MVO

Одни из нас

1 сезон

Deluxe

pack

Рекомендуем

30

Пиратка

ВАЖНО

ВАЖНО

Ghostwire

Пиратка

jed

RePack

nioh2

RePack

RDR2

RePack

NEED FOR SPEED™ PAYBACK

RePack

скачать торрент

Кинопоиск HD

Острые козырьки 6 сезон

6 сезон

FAR CRY 6

RePack

скачать торрент

Лицензия

скачать торрент

MVO

1

1 сезон

скачать торрент

1 сезон

скачать торрент

Лицензия

  

Иностранец / The Foreigner (Мартин Кэмпбелл) [2017, боевик, триллер, криминал, детектив, BDRip 1080p] [GER Transfer] Дубляж + AVO - KORSAR

Иностранец через торрент pb.wtf

Размер: 8.71 GB | Добавлен: 3 года назад | Торрент скачан:179 раз
Смотреть онлайн | Скачать | Поддержите нас   

17-01-2020 21:18 Иностранец Скачать торрент  

Иностранец / The Foreigner
Год выпуска: 2017
Страна: Великобритания:f_22: , Китай , США:f_56:
Жанр: Боевик, триллер, криминал, детектив
Продолжительность: 01:53:26
Перевод: Дублированный, авторский одноголосый
Субтитры: Русские, английские
Режиссёр: Мартин Кэмпбелл
В ролях: Джеки Чан, Пирс Броснан, Майкл МакЭлхаттон, Лю Тао, Чарли Мерфи, Орла Брэйди, Кэти Льюнг, Рэй Фиарон, Руфус Джонс, Марк Тэнди
Описание: Бывший спецагент, ветеран вьетнамской войны Цюань давно сложил оружие и завел мирную жизнь. Но после того, как в теракте прямо на глазах погибает его дочь-подросток, видя, что власти не спешат разыскивать преступников, Цюань сам начинает поиск убийцы. Он пойдет на все, чтобы совершить праведное возмездие.

rating

Качество: BDRip 1080p
Формат: MKV
Видео: MPEG-4 AVC, 1920x804 (2.40:1), 7800 kbps, 23.976 fps
Аудио 1: Russian: 48 kHz, AC3, 5.1 ch, 16 bits, 640 kbps - Дубляж
Аудио 2: Russian: 48 kHz, AC3, 5.1 ch, 16 bits, 640 kbps - AVO, Чадов
Аудио 3: Russian: 48 kHz, AC3, 5.1 ch, 16 bits, 640 kbps - AVO, Карповский
Аудио 4: Russian: 48 kHz, AC3, 5.1 ch, 16 bits, 640 kbps - AVO, Живов
Аудио 5: English: 48 kHz, AC3, 5.1 ch, 16 bits, 640 kbps - Оригинал

Релиз от:


Видеоряд без английского хардсаба.
Формат : Matroska
Версия формата : Version 2
Размер файла : 8,71 Гбайт
Продолжительность : 1 ч. 53 м.
Общий поток : 11,0 Мбит/сек
Название фильма : = Иностранец / The Foreigner (2017) BDRip 1080p - KORSAR =
Дата кодирования : UTC 2018-06-16 07:48:03
Программа кодирования : mkvmerge v5.8.0 ('No Sleep / Pillow') built on Sep 2 2012 15:37:04
Библиотека кодирования : libebml v1.2.3 + libmatroska v1.3.0
Attachment : Yes

Видео
Идентификатор : 1
Формат : AVC
Формат/Информация : Advanced Video Codec
Профиль формата : [email protected]
Параметр CABAC формата : Да
Параметр ReFrames формата : 5 кадров
Идентификатор кодека : V_MPEG4/ISO/AVC
Продолжительность : 1 ч. 53 м.
Битрейт : 7800 Кбит/сек
Ширина : 1920 пикселей
Высота : 804 пикселя
Соотношение сторон : 2,40:1
Режим частоты кадров : Постоянный
Частота кадров : 23,976 кадра/сек
Цветовое пространство : YUV
Субдискретизация насыщенности : 4:2:0
Битовая глубина : 8 бит
Тип развёртки : Прогрессивная
Бит/(Пиксели*Кадры) : 0.211
Размер потока : 6,01 Гбайт (69%)
Заголовок : Иностранец / The Foreigner (2017) BDRip 1080p - KORSAR
Библиотека кодирования : x264 core 148 r2744kMod b97ae06
Настройки программы : cabac=1 / ref=5 / deblock=1:-3:-3 / analyse=0x3:0x113 / me=umh / subme=11 / psy=1 / fade_compensate=0.00 / psy_rd=1.00:0.00 / mixed_ref=1 / me_range=48 / chroma_me=1 / trellis=2 / 8x8dct=1 / cqm=0 / deadzone=21,11 / fast_pskip=0 / chroma_qp_offset=-2 / threads=12 / lookahead_threads=3 / sliced_threads=0 / nr=0 / decimate=0 / interlaced=0 / bluray_compat=0 / constrained_intra=0 / bframes=10 / b_pyramid=2 / b_adapt=2 / b_bias=0 / direct=3 / weightb=1 / open_gop=0 / weightp=2 / keyint=240 / keyint_min=23 / scenecut=40 / intra_refresh=0 / rc_lookahead=60 / rc=2pass / mbtree=0 / bitrate=7800 / ratetol=1.0 / qcomp=0.70 / qpmin=0 / qpmax=39 / qpstep=4 / cplxblur=20.0 / qblur=0.5 / vbv_maxrate=50000 / vbv_bufsize=62500 / nal_hrd=none / filler=0 / ip_ratio=1.40 / pb_ratio=1.30 / aq=3:0.80
Язык : English
Default : Да
Forced : Нет
Основные цвета : BT.709
Характеристики трансфера : BT.709
Коэффициенты матрицы : BT.709

Аудио #1
Идентификатор : 2
Формат : AC-3
Формат/Информация : Audio Coding 3
Расширение режима : CM (complete main)
Параметр Endianness формата : Big
Идентификатор кодека : A_AC3
Продолжительность : 1 ч. 53 м.
Вид битрейта : Постоянный
Битрейт : 640 Кбит/сек
Каналы : 6 каналов
Расположение каналов : Front: L C R, Side: L R, LFE
Частота : 48,0 КГц
Битовая глубина : 16 бит
Метод сжатия : С потерями
Размер потока : 519 Мбайт (6%)
Заголовок : Дубляж
Язык : Russian
Default : Да
Forced : Нет

Аудио #2
Идентификатор : 3
Формат : AC-3
Формат/Информация : Audio Coding 3
Расширение режима : CM (complete main)
Параметр Endianness формата : Big
Идентификатор кодека : A_AC3
Продолжительность : 1 ч. 53 м.
Вид битрейта : Постоянный
Битрейт : 640 Кбит/сек
Каналы : 6 каналов
Расположение каналов : Front: L C R, Side: L R, LFE
Частота : 48,0 КГц
Битовая глубина : 16 бит
Метод сжатия : С потерями
Размер потока : 519 Мбайт (6%)
Заголовок : AVO ( Чадов )
Язык : Russian
Default : Нет
Forced : Нет

Аудио #3
Идентификатор : 4
Формат : AC-3
Формат/Информация : Audio Coding 3
Расширение режима : CM (complete main)
Параметр Endianness формата : Big
Идентификатор кодека : A_AC3
Продолжительность : 1 ч. 53 м.
Вид битрейта : Постоянный
Битрейт : 640 Кбит/сек
Каналы : 6 каналов
Расположение каналов : Front: L C R, Side: L R, LFE
Частота : 48,0 КГц
Битовая глубина : 16 бит
Метод сжатия : С потерями
Размер потока : 519 Мбайт (6%)
Заголовок : AVO ( Карповский )
Язык : Russian
Default : Нет
Forced : Нет

Аудио #4
Идентификатор : 5
Формат : AC-3
Формат/Информация : Audio Coding 3
Расширение режима : CM (complete main)
Параметр Endianness формата : Big
Идентификатор кодека : A_AC3
Продолжительность : 1 ч. 53 м.
Вид битрейта : Постоянный
Битрейт : 640 Кбит/сек
Каналы : 6 каналов
Расположение каналов : Front: L C R, Side: L R, LFE
Частота : 48,0 КГц
Битовая глубина : 16 бит
Метод сжатия : С потерями
Размер потока : 519 Мбайт (6%)
Заголовок : AVO ( Живов )
Язык : Russian
Default : Нет
Forced : Нет

Аудио #5
Идентификатор : 6
Формат : AC-3
Формат/Информация : Audio Coding 3
Расширение режима : CM (complete main)
Параметр Endianness формата : Big
Идентификатор кодека : A_AC3
Продолжительность : 1 ч. 53 м.
Вид битрейта : Постоянный
Битрейт : 640 Кбит/сек
Каналы : 6 каналов
Расположение каналов : Front: L C R, Side: L R, LFE
Частота : 48,0 КГц
Битовая глубина : 16 бит
Метод сжатия : С потерями
Размер потока : 519 Мбайт (6%)
Язык : English
Default : Нет
Forced : Нет

Текст #1
Идентификатор : 7
Формат : UTF-8
Идентификатор кодека : S_TEXT/UTF8
Идентификатор кодека/Информация : UTF-8 Plain Text
Язык : Russian
Default : Нет
Forced : Нет

Текст #2
Идентификатор : 8
Формат : UTF-8
Идентификатор кодека : S_TEXT/UTF8
Идентификатор кодека/Информация : UTF-8 Plain Text
Заголовок : Forced
Язык : English
Default : Нет
Forced : Нет

Текст #3
Идентификатор : 9
Формат : UTF-8
Идентификатор кодека : S_TEXT/UTF8
Идентификатор кодека/Информация : UTF-8 Plain Text
Язык : English
Default : Нет
Forced : Нет

Текст #4
Идентификатор : 10
Формат : UTF-8
Идентификатор кодека : S_TEXT/UTF8
Идентификатор кодека/Информация : UTF-8 Plain Text
Заголовок : SDH
Язык : English
Default : Нет
Forced : Нет

Меню
00:00:00.000 : en:00:00:00.000
00:11:47.164 : en:00:11:47.164
00:21:22.364 : en:00:21:22.364
00:31:44.110 : en:00:31:44.110
00:43:01.954 : en:00:43:01.954
00:55:07.178 : en:00:55:07.178
01:03:49.700 : en:01:03:49.700
01:15:40.202 : en:01:15:40.202
01:24:53.463 : en:01:24:53.463
01:37:00.648 : en:01:37:00.648
01:46:45.065 : en:01:46:45.065
01:53:26.174 : en:01:53:26.174



Скачать Иностранец через торрент https://i2-imageban-ru.translate.goog/out/2020/01/18/c32a985f34a4094324ccacf4f5dd10d3.png Скачать, смотреть онлайн Иностранец бесплантно в хорошем качестве Описание: Бывший спецагент, ветеран вьетнамской войны Цюань давно сложил оружие и завел мирную жизнь. Но после того, как в теракте прямо на ... 9.5 10 6
Info! Золотая раздача, скачанное не засчитывается.
Торрент: Зарегистрирован [2020-01-17 21:18] · скачан: 179 раз
Статус: √ проверено
Размер: 8.71 GB
Как cкачать? Как скачать Иностранец через торрент | UTorrent

28-11-2019 20:33  


Отключить вcю реклaмy на сайте, в т.ч. и в плеере онлайн просмотра!

    Дорогой пользователь! Огромная просьба, поблагодарите релизера, оцените раздачу и оставьте свои комментарий, если Вы скачали Иностранец через торрент бесплатно!!
    Комментировать посты могут только пользователи прошедшие не сложную регистрацию
    Показать сообщения:    


    Иностранец через торрент
    Скачать бесплатно Иностранец
    Иностранец скачать торрент
    Иностранец смотреть онлайн
    Cкачать фильм Иностранец бесплатно
    Иностранец скачать торрент в хорошем качестве
    Иностранец смотреть онлайн бесплатно в хорошем качестве
    Вы не можете начинать темы
    Вы не можете отвечать на сообщения
    Вы не можете редактировать свои сообщения
    Вы не можете удалять свои сообщения
    Вы не можете голосовать в опросах
    Вы не можете прикреплять файлы к сообщениям
    Вы можете скачивать файлы
    Иностранец / The Foreigner [2017, боевик, триллер, криминал, детектив, BDRip 1080p] [GER Transfer] Дубляж + AVO - KORSAR смотреть онлайн, скачать торрент picoco.icu