2 сезон

iTunes

1 сезон

1

iTunes

iTunes

iTunes

1 сезон

RePack

30

ИГРА 18+

pack

ВАЖНО

!!Акция!!

Alien_RageХит недели

RePack

MK11
pack

Забери бонус

RePack

jed

!!Акция!!

Alien_Rage

RePack

fifa19

RePack

Assassins Creed: Odyssey

RePack

NEED FOR SPEED™ PAYBACK

4 сезон

9 сезон

Бесстыжие 9 сезон

Все сериалы

все сериалы на PB.wtf

RePack

FAR CRY 5
  

Зачарованная Десна (Юлия Солнцева) [1964, СССР, фэнтези, DVDRip от AVP Studio] pb.wtf

Зачарованная Десна через торрент pb.wtf

Размер: 745 MB | Добавлен: 9 мес. назад | Торрент скачан:7 раз
Скачать  

18-01-2020 10:26 Зачарованная Десна Скачать торрент  

Зачарованная Десна
Страна: СССР
Производство: Киностудия им. А. Довженко, Мосфильм

Жанр: фэнтези
Год выпуска: 1964
Продолжительность: 01:17:03

Перевод: Не требуется
Cубтитры: нет
Оригинальная аудиодорожка: русский

Режиссер: Юлия Солнцева

В ролях:
Евгений Самойлов, Вова Гончаров, Евгений Бондаренко, Зинаида Кириенко, Борис Андреев, Иван Переверзев, Ия Маркс, В. Орловский, Григорий Заславец, Владимир Гусев, Анатолий Юшко, Вячеслав Воронин, Иван Жеваго, Борис Юрченко, Владимир Перепелюк...
Об актёрах подробней

Описание:
О детских годах известного советского кинорежиссера Александра Довженко, который родился на древней черниговской земле, у берегов Десны. Фильм состоит из двух частей. Первая — это мир, показанный через впечатления шестилетнего Сашко. Вторая — воспоминания и рассуждения Сашко, теперь уже немолодого полковника, освобождающего в ходе войны родное село.

Источник: DVD5 R5
Качество видео: DVDRip
Формат видео: AVI

Видео: 720х320 (2,25:1), 25,000 fps, XviD ~ 1151 kbps avg, 0.200 bit/pixel
Аудио: 48 kHz, Dolby Digital AC3 2.0, 192 kbps

Раздача от:
Общее
Полное имя : Zacharovannaya.Desna.1964.DVDRip_[New-team]_by_AVP_Studio.avi
Формат : AVI
Формат/Информация : Audio Video Interleave
Размер файла : 745 Мбайт
Продолжительность : 1 ч. 17 м.
Общий поток : 1352 Кбит/сек
Программа кодирования : VirtualDubMod 1.5.10.3 | www.virtualdub-fr.org || (build 2550/release)
Библиотека кодирования : VirtualDubMod build 2550/release

Видео
Идентификатор : 0
Формат : MPEG-4 Visual
Профиль формата : Advanced Simple@L5
Настройки формата : BVOP1 / Custom Matrix
Параметр BVOP формата : 1
Параметр QPel формата : Нет
Параметр GMC формата : Без точки перехода
Параметр матрицы формата : Выборочная
Идентификатор кодека : XVID
Идентификатор кодека/Подсказка : XviD
Продолжительность : 1 ч. 17 м.
Битрейт : 1151 Кбит/сек
Ширина : 720 пикселей
Высота : 320 пикселей
Соотношение сторон : 2,25:1
Частота кадров : 25,000 кадров/сек
Цветовое пространство : YUV
Субдискретизация насыщенности : 4:2:0
Битовая глубина : 8 бит
Тип развёртки : Прогрессивная
Метод сжатия : С потерями
Бит/(Пиксели*Кадры) : 0.200
Размер потока : 634 Мбайт (85%)
Библиотека кодирования : XviD 73

Аудио
Идентификатор : 1
Формат : AC-3
Формат/Информация : Audio Coding 3
Коммерческое название : Dolby Digital
Идентификатор кодека : 2000
Продолжительность : 1 ч. 17 м.
Вид битрейта : Постоянный
Битрейт : 192 Кбит/сек
Каналы : 2 канала
ChannelLayout : L R
Частота : 48,0 КГц
Частота кадров : 31,250 кадров/сек (1536 SPF)
Битовая глубина : 16 бит
Метод сжатия : С потерями
Размер потока : 106 Мбайт (14%)
Выравнивание : Разделение по промежуткам
Продолжительность промежутка : 40 мс. (1,00 видеокадр)
Время предзагрузки промежутка : 500 мс
pb.wtf



Скачать Зачарованная Десна через торрент http://d.radikal.ru/d34/2001/15/c6608c70d932.png Скачать фильм Зачарованная Десна через торрент бесплантно в хорошем качестве Описание:О детских годах известного советского кинорежиссера Александра Довженко, который родился на древней черниговской земле, у берегов ... 5 10 1
Торрент: Зарегистрирован [2020-01-18 10:26] · скачан: 7 раз
Статус: √ проверено
Размер: 745 MB
Как cкачать? Как скачать Зачарованная Десна через торрент | qTorrent

% Раздел Тема Автор DL S | L
Кино СССР [ 744 MB ] Зачарованная Десна [1964 СССР DVDRip-AVC от AVP Studio] AVP Studio Скачать
3 | 0

28-11-2019 20:33  

Отключить всю рекламу на сайте

    Дорогой пользователь! Огромная просьба, поблагодарите релизера, оцените раздачу и оставьте свои комментарий, если Вы скачали Зачарованная Десна через торрент бесплатно! Внесите свою лепту в развитие PiratBit!
    Комментировать посты могут только пользователи прошедшие не сложную регистрацию
    Показать сообщения:    

    Зачарованная Десна через торрент
    Скачать бесплатно Зачарованная Десна
    Зачарованная Десна скачать торрент
    Зачарованная Десна смотреть онлайн
    Cкачать фильм Зачарованная Десна бесплатно
    Зачарованная Десна скачать торрент в хорошем качестве
    Зачарованная Десна смотреть онлайн бесплатно в хорошем качестве


    Вы не можете начинать темы
    Вы не можете отвечать на сообщения
    Вы не можете редактировать свои сообщения
    Вы не можете удалять свои сообщения
    Вы не можете голосовать в опросах
    Вы не можете прикреплять файлы к сообщениям
    Вы можете скачивать файлы