Ссылка на приватное зеркало нашего сайта всего за 1$. Внимание количество ограничено!!!

2 сезон

iTunes

1 сезон

1

iTunes

iTunes

iTunes

1 сезон

RePack

30

ИГРА 18+

pack

ВАЖНО

!!Акция!!

Alien_RageХит недели

RePack

MK11
pack

Забери бонус

RePack

jed

!!Акция!!

Alien_Rage

RePack

fifa19

RePack

Assassins Creed: Odyssey

RePack

NEED FOR SPEED™ PAYBACK

4 сезон

9 сезон

Бесстыжие 9 сезон

Все сериалы

все сериалы на PB.wtf

RePack

FAR CRY 5
  

Зачарованная Десна (Юлия Солнцева) [1964, СССР, фэнтези, DVDRip-AVC от AVP Studio] pb.wtf

Зачарованная Десна через торрент pb.wtf

Размер: 744 MB | Добавлен: 9 мес. назад | Торрент скачан:21 раз
Скачать  

18-01-2020 10:27 Зачарованная Десна Скачать торрент  

Зачарованная Десна
Страна: СССР
Производство: Киностудия им. А. Довженко, Мосфильм

Жанр: фэнтези
Год выпуска: 1964
Продолжительность: 01:17:03

Перевод: Не требуется
Cубтитры: нет
Оригинальная аудиодорожка: русский

Режиссер: Юлия Солнцева

В ролях:
Евгений Самойлов, Вова Гончаров, Евгений Бондаренко, Зинаида Кириенко, Борис Андреев, Иван Переверзев, Ия Маркс, В. Орловский, Григорий Заславец, Владимир Гусев, Анатолий Юшко, Вячеслав Воронин, Иван Жеваго, Борис Юрченко, Владимир Перепелюк...
Об актёрах подробней

Описание:
О детских годах известного советского кинорежиссера Александра Довженко, который родился на древней черниговской земле, у берегов Десны. Фильм состоит из двух частей. Первая — это мир, показанный через впечатления шестилетнего Сашко. Вторая — воспоминания и рассуждения Сашко, теперь уже немолодого полковника, освобождающего в ходе войны родное село.

Источник: DVD5 R5
Качество видео: DVDRip-AVC
Формат видео: MKV

Видео: 720->792х352 (2,25:1), 25,000 fps, H264 ~ 1157 kbps avg, 0.183 bit/pixel
Аудио: 48 kHz, Dolby Digital AC3 2.0, 192 kbps

Раздача от:
Общее
Полное имя : Zacharovannaya.Desna.1964.DVDRip-AVC_[New-team]_by_AVP_Studio.mkv
Формат : Matroska
Версия формата : Version 2
Размер файла : 744 Мбайт
Продолжительность : 1 ч. 17 м.
Общий поток : 1351 Кбит/сек
Дата кодирования : UTC 2020-01-13 15:50:10
Программа кодирования : mkvmerge v6.1.0 ('Old Devil') built on Mar 4 2013 09:10:42
Библиотека кодирования : libebml v1.3.0 + libmatroska v1.4.0

Видео
Идентификатор : 1
Формат : AVC
Формат/Информация : Advanced Video Codec
Профиль формата : High@L4.1
Настройки формата : CABAC / 10 Ref Frames
Параметр CABAC формата : Да
Параметр RefFrames формата : 10 кадров
Идентификатор кодека : V_MPEG4/ISO/AVC
Продолжительность : 1 ч. 17 м.
Битрейт : 1157 Кбит/сек
Ширина : 720 пикселей
Высота : 352 пикселя
Соотношение сторон : 2,25:1
Режим частоты кадров : Постоянный
Частота кадров : 25,000 кадров/сек
Цветовое пространство : YUV
Субдискретизация насыщенности : 4:2:0
Битовая глубина : 8 бит
Тип развёртки : Прогрессивная
Бит/(Пиксели*Кадры) : 0.183
Размер потока : 624 Мбайт (84%)
Библиотека кодирования : x264 core 159 r2991 1771b55
Настройки программы : cabac=1 / ref=10 / deblock=1:-2:-1 / analyse=0x3:0x113 / me=umh / subme=10 / psy=1 / psy_rd=1.00:0.00 / mixed_ref=1 / me_range=32 / chroma_me=1 / trellis=2 / 8x8dct=1 / cqm=0 / deadzone=21,11 / fast_pskip=1 / chroma_qp_offset=-2 / threads=6 / lookahead_threads=1 / sliced_threads=0 / nr=0 / decimate=0 / interlaced=0 / bluray_compat=0 / constrained_intra=0 / bframes=8 / b_pyramid=2 / b_adapt=2 / b_bias=0 / direct=3 / weightb=1 / open_gop=0 / weightp=2 / keyint=250 / keyint_min=25 / scenecut=40 / intra_refresh=0 / rc=2pass / mbtree=0 / bitrate=1157 / ratetol=1.0 / qcomp=0.60 / qpmin=0 / qpmax=69 / qpstep=4 / cplxblur=20.0 / qblur=0.5 / ip_ratio=1.40 / pb_ratio=1.30 / aq=1:1.00
Default : Да
Forced : Нет

Аудио
Идентификатор : 2
Формат : AC-3
Формат/Информация : Audio Coding 3
Коммерческое название : Dolby Digital
Идентификатор кодека : A_AC3
Продолжительность : 1 ч. 17 м.
Вид битрейта : Постоянный
Битрейт : 192 Кбит/сек
Каналы : 2 канала
ChannelLayout : L R
Частота : 48,0 КГц
Частота кадров : 31,250 кадров/сек (1536 SPF)
Битовая глубина : 16 бит
Метод сжатия : С потерями
Размер потока : 106 Мбайт (14%)
Default : Да
Forced : Нет
pb.wtf



Скачать Зачарованная Десна через торрент http://d.radikal.ru/d34/2001/15/c6608c70d932.png Скачать фильм Зачарованная Десна через торрент бесплантно в хорошем качестве Описание:О детских годах известного советского кинорежиссера Александра Довженко, который родился на древней черниговской земле, у берегов ... 5 10 1
Торрент: Зарегистрирован [2020-01-18 10:27] · скачан: 21 раз
Статус: √ проверено
Размер: 744 MB
Как cкачать? Как скачать Зачарованная Десна через торрент | qTorrent

% Раздел Тема Автор DL S | L
Кино СССР [ 745 MB ] Зачарованная Десна [1964 СССР DVDRip от AVP Studio] AVP Studio Скачать
1 | 0

28-11-2019 20:33  

Отключить всю рекламу на сайте

    Дорогой пользователь! Огромная просьба, поблагодарите релизера, оцените раздачу и оставьте свои комментарий, если Вы скачали Зачарованная Десна через торрент бесплатно! Внесите свою лепту в развитие PiratBit!
    Комментировать посты могут только пользователи прошедшие не сложную регистрацию
    Показать сообщения:    

    Зачарованная Десна через торрент
    Скачать бесплатно Зачарованная Десна
    Зачарованная Десна скачать торрент
    Зачарованная Десна смотреть онлайн
    Cкачать фильм Зачарованная Десна бесплатно
    Зачарованная Десна скачать торрент в хорошем качестве
    Зачарованная Десна смотреть онлайн бесплатно в хорошем качестве


    Вы не можете начинать темы
    Вы не можете отвечать на сообщения
    Вы не можете редактировать свои сообщения
    Вы не можете удалять свои сообщения
    Вы не можете голосовать в опросах
    Вы не можете прикреплять файлы к сообщениям
    Вы можете скачивать файлы