Доктор Стрэндж

Лицензия

Добыча

Дубляж

Уэнсдэй

1 сезон

Тор

Дубляж

В эфире

Дубляж

Там, где раки поют

MVO

Властелин колец

1 сезон

Deluxe

pack

Рекомендуем

30

Пиратка

ВАЖНО

ВАЖНО

Ghostwire

Пиратка

jed

RePack

nioh2

RePack

RDR2

RePack

NEED FOR SPEED™ PAYBACK

RePack

скачать торрент

Кинопоиск HD

Острые козырьки 6 сезон

6 сезон

FAR CRY 6

RePack

скачать торрент

Лицензия

скачать торрент

MVO

1

1 сезон

скачать торрент

1 сезон

скачать торрент

Лицензия

  

На крючке / Eagle Eye (Ди Джей Карузо) [2008, фантастика, боевик, триллер, BDRemux 1080p] Дубляж (rus, ukr) + 2xAVO + MVO

На крючке через торрент pb.wtf

Размер: 26.98 GB | Добавлен: 2 года 10 мес. назад | Торрент скачан:26 раз
Смотреть онлайн | Скачать   

18-01-2020 16:19 На крючке Скачать торрент  

На крючке / Eagle Eye««Хочешь жить - делай что говорят»»

Год выпуска: 2008
Страна: США, Германия
Жанр: фантастика, боевик, триллер, детектив
Продолжительность: 01:57:36
Перевод: Дублированный, Многоголосый закадровый, Авторский
Субтитры: Русские, Украинские, Английские

Режиссер: Ди Джей Карузо
В ролях:

Шайа ЛаБаф (Jerry Shaw), Мишель Монахэн (Rachel Holloman), Билли Боб Торнтон (Agent Thomas Morgan), Розарио Доусон (Zoe Perez), Майкл Чиклис (Defense Secretary Callister), Энтони Маки (Major William Bowman), Итэн Эмбри (Agent Toby Grant), Энтони Азизи (Ranim Khalid), Кэмерон Бойс (Sam Holloman), Линн Коэн (Mrs. Wierzbowski), Билл Смитрович (Admiral Thompson), Чарльз Кэррол (Mr. Miller)
Описание:
Юный бездельник живет беззаботной жизнью, в отличие от своего брата-близнеца, стремящегося добиться успеха во всех сферах жизни, пока... тот не погибает при загадочных обстоятельствах. В то же время у матери-одиночки Рэйчел крадут ребёнка...
Рейтинг:

MPAA: PG-13 - Детям до 13 лет просмотр не желателен
Качество: BDRemux 1080p
Формат: MKV
Видео: MPEG-4 AVC/H.264, ~29582 kbps, 1920 х 1080
Аудио 1: Русский, AC3 5.1, 640 kbps, 48 kHz (Дубляж, BD EUR)
Аудио 2: Русский, AC3 5.1, 448 kbps, 48 kHz (MVO, Киномания)
Аудио 3: Русский, AC3 5.1, 640 kbps, 48 kHz (AVO, А.Гаврилов)
Аудио 4: Русский, AC3 5.1, 448 kbps, 48 kHz (AVO, Ю.Сербин)
Аудио 5: Украинский, AC3 5.1, 448 kbps, 48 kHz (Дубляж)
Аудио 6: Английский, AC3 5.1, 640 kbps, 48 kHz (Original)
Навигация по главам: есть

General
Unique ID : 207185888803891132766066417342935908804 (0x9BDE8CFCA75A2541BA8B68A16F56C1C4)
Complete name : D:\Films\Eagle.Eye.2008.BDRemux.1080p.mkv
Format : Matroska
Format version : Version 2
File size : 27.0 GiB
Duration : 1h 57mn
Overall bit rate mode : Variable
Overall bit rate : 32.8 Mbps
Movie name : Eagle Eye
Encoded date : UTC 2015-02-01 10:36:57
Writing application : mkvmerge v5.2.0 ('I can't explain') built on Dec 18 2011 18:12:03
Writing library : libebml v1.2.3 + libmatroska v1.3.0

Video
ID : 1
Format : AVC
Format/Info : Advanced Video Codec
Format profile : [email protected]
Format settings, CABAC : Yes
Format settings, ReFrames : 4 frames
Codec ID : V_MPEG4/ISO/AVC
Duration : 1h 57mn
Bit rate mode : Variable
Bit rate : 28.9 Mbps
Maximum bit rate : 35.0 Mbps
Width : 1 920 pixels
Height : 1 080 pixels
Display aspect ratio : 16:9
Frame rate mode : Constant
Frame rate : 23.976 fps
Color space : YUV
Chroma subsampling : 4:2:0
Bit depth : 8 bits
Scan type : Progressive
Bits/(Pixel*Frame) : 0.582
Stream size : 23.8 GiB (88%)
Language : English
Default : Yes
Forced : No
Color primaries : BT.709
Transfer characteristics : BT.709
Matrix coefficients : BT.709
Color range : Limited

Audio #1
ID : 2
Format : AC-3
Format/Info : Audio Coding 3
Mode extension : CM (complete main)
Format settings, Endianness : Big
Codec ID : A_AC3
Duration : 1h 57mn
Bit rate mode : Constant
Bit rate : 640 Kbps
Channel(s) : 6 channels
Channel positions : Front: L C R, Side: L R, LFE
Sampling rate : 48.0 KHz
Bit depth : 16 bits
Compression mode : Lossy
Stream size : 538 MiB (2%)
Title : Дубляж, BD EUR
Language : Russian
Default : Yes
Forced : No

Audio #2
ID : 3
Format : AC-3
Format/Info : Audio Coding 3
Mode extension : CM (complete main)
Format settings, Endianness : Big
Codec ID : A_AC3
Duration : 1h 57mn
Bit rate mode : Constant
Bit rate : 448 Kbps
Channel(s) : 6 channels
Channel positions : Front: L C R, Side: L R, LFE
Sampling rate : 48.0 KHz
Bit depth : 16 bits
Compression mode : Lossy
Stream size : 377 MiB (1%)
Title : MVO, Киномания
Language : Russian
Default : No
Forced : No

Audio #3
ID : 4
Format : AC-3
Format/Info : Audio Coding 3
Mode extension : CM (complete main)
Format settings, Endianness : Big
Codec ID : A_AC3
Duration : 1h 57mn
Bit rate mode : Constant
Bit rate : 640 Kbps
Channel(s) : 6 channels
Channel positions : Front: L C R, Side: L R, LFE
Sampling rate : 48.0 KHz
Bit depth : 16 bits
Compression mode : Lossy
Stream size : 538 MiB (2%)
Title : AVO, А.Гаврилов
Language : Russian
Default : No
Forced : No

Audio #4
ID : 5
Format : AC-3
Format/Info : Audio Coding 3
Mode extension : CM (complete main)
Format settings, Endianness : Big
Codec ID : A_AC3
Duration : 1h 57mn
Bit rate mode : Constant
Bit rate : 448 Kbps
Channel(s) : 6 channels
Channel positions : Front: L C R, Side: L R, LFE
Sampling rate : 48.0 KHz
Bit depth : 16 bits
Compression mode : Lossy
Stream size : 377 MiB (1%)
Title : AVO, Ю.Сербин
Language : Russian
Default : No
Forced : No

Audio #5
ID : 6
Format : AC-3
Format/Info : Audio Coding 3
Mode extension : CM (complete main)
Format settings, Endianness : Big
Codec ID : A_AC3
Duration : 1h 57mn
Bit rate mode : Constant
Bit rate : 448 Kbps
Channel(s) : 6 channels
Channel positions : Front: L C R, Side: L R, LFE
Sampling rate : 48.0 KHz
Bit depth : 16 bits
Compression mode : Lossy
Stream size : 377 MiB (1%)
Title : Дубляж
Language : Ukrainian
Default : No
Forced : No

Audio #6
ID : 7
Format : AC-3
Format/Info : Audio Coding 3
Mode extension : CM (complete main)
Format settings, Endianness : Big
Codec ID : A_AC3
Duration : 1h 57mn
Bit rate mode : Constant
Bit rate : 640 Kbps
Channel(s) : 6 channels
Channel positions : Front: L C R, Side: L R, LFE
Sampling rate : 48.0 KHz
Bit depth : 16 bits
Compression mode : Lossy
Stream size : 538 MiB (2%)
Title : Original
Language : English
Default : No
Forced : No

Text #1
ID : 8
Format : UTF-8
Codec ID : S_TEXT/UTF8
Codec ID/Info : UTF-8 Plain Text
Title : Forsed
Language : Russian
Default : Yes
Forced : No

Text #2
ID : 9
Format : UTF-8
Codec ID : S_TEXT/UTF8
Codec ID/Info : UTF-8 Plain Text
Language : Russian
Default : No
Forced : No

Text #3
ID : 10
Format : UTF-8
Codec ID : S_TEXT/UTF8
Codec ID/Info : UTF-8 Plain Text
Language : Ukrainian
Default : No
Forced : No

Text #4
ID : 11
Format : UTF-8
Codec ID : S_TEXT/UTF8
Codec ID/Info : UTF-8 Plain Text
Language : English
Default : No
Forced : No

Menu
00:00:00.000 : en:Chapter 01
00:05:49.140 : en:Chapter 02
00:10:39.555 : en:Chapter 03
00:16:26.902 : en:Chapter 04
00:19:33.964 : en:Chapter 05
00:23:41.753 : en:Chapter 06
00:26:22.831 : en:Chapter 07
00:31:42.400 : en:Chapter 08
00:38:06.492 : en:Chapter 09
00:43:23.142 : en:Chapter 10
00:46:29.953 : en:Chapter 11
00:52:01.243 : en:Chapter 12
00:56:03.568 : en:Chapter 13
01:00:40.345 : en:Chapter 14
01:04:26.654 : en:Chapter 15
01:09:07.977 : en:Chapter 16
01:15:33.153 : en:Chapter 17
01:20:58.770 : en:Chapter 18
01:25:43.179 : en:Chapter 19
01:32:52.108 : en:Chapter 20
01:39:48.399 : en:Chapter 21
01:44:35.060 : en:Chapter 22
01:48:16.907 : en:Chapter 23
01:50:48.391 : en:Chapter 24



Скачать На крючке через торрент https://a.radikal.ru/a31/2001/f7/c22715e7a274.png Скачать, смотреть онлайн На крючке бесплантно в хорошем качестве Описание: Юный бездельник живет беззаботной жизнью, в отличие от своего брата-близнеца, стремящегося добиться успеха во всех сферах жизни, ... 10 10 4
Торрент: Зарегистрирован [2020-01-18 16:19] · скачан: 26 раз
Статус: √ проверено
Размер: 26.98 GB
Как cкачать? Как скачать На крючке через торрент | UTorrent

% Раздел Тема Автор DL S | L
Фильмы [HD 720p, 1080p] (Хороший звук DUB, MVO) [ 7.68 GB ] На крючке / Eagle Eye | DUB | 1080p, (10 bit bober100 Скачать
1 | 0

28-11-2019 20:33  


Отключить вcю реклaмy на сайте, в т.ч. и в плеере онлайн просмотра!

    Дорогой пользователь! Огромная просьба, поблагодарите релизера, оцените раздачу и оставьте свои комментарий, если Вы скачали На крючке через торрент бесплатно!!
    Комментировать посты могут только пользователи прошедшие не сложную регистрацию
    Показать сообщения:    


    На крючке через торрент
    Скачать бесплатно На крючке
    На крючке скачать торрент
    На крючке смотреть онлайн
    Cкачать фильм На крючке бесплатно
    На крючке скачать торрент в хорошем качестве
    На крючке смотреть онлайн бесплатно в хорошем качестве
    Вы не можете начинать темы
    Вы не можете отвечать на сообщения
    Вы не можете редактировать свои сообщения
    Вы не можете удалять свои сообщения
    Вы не можете голосовать в опросах
    Вы не можете прикреплять файлы к сообщениям
    Вы можете скачивать файлы
    На крючке / Eagle Eye [2008, фантастика, боевик, триллер, BDRemux 1080p] Дубляж + 2xAVO + MVO смотреть онлайн, скачать торрент picoco.icu