Ссылка на приватное зеркало нашего сайта всего за 1$. Внимание количество ограничено!!!

2 сезон

iTunes

1 сезон

1

2 сезон

2 сезон

iTunes

1 сезон

RePack

30

Ultimate

ВАЖНО

ИГРА 18+

pack

RePack

MK11
pack

Забери бонус

RePack

jed

!!Акция!!

Alien_Rage

RePack

fifa19

RePack

Assassins Creed: Odyssey

RePack

NEED FOR SPEED™ PAYBACK

4 сезон

9 сезон

Бесстыжие 9 сезон

Все сериалы

все сериалы на PB.wtf

RePack

FAR CRY 5
  

Ловушка разума / Полный улет / The Wave (Гилле Клабин) [2019, Фантастика, триллер, WEB-DL 720p] DUB [iTunes] pb.wtf

Ловушка разума через торрент pb.wtf

Раздают: 2 [ 0 KB/s ]
Размер: 2.77 GB | Добавлен: 6 мес. назад | Торрент скачан:230 раз
Скачать  

18-01-2020 16:53 Ловушка разума Скачать торрент  

Ловушка разума | Полный улет | The Wave
Год выпуска: 2019
Страна: США
Студия: EchoWolf Productions
Жанр: Фантастика, триллер
Продолжительность: 01:27:18
Перевод: Дублированный | iTunes
Субтитры: Английские (Full, SDH)

Режиссер: Гилле Клабин

rating

В ролях: Джастин Лонг, Томми Флэнаган, Катя Винтер, Дональд Фэйсон, Шейла Ванд, Сара Минник, Билл Сейдж, Моник Канделария, Ронни Джин Блевинс, Блайт Ховард

Описание: Уставший юрист Фрэнк, защищающий интересы страховой компании, решает развеяться на вечеринке вместе с приятелем. Следующий его шаг уже не такой безобидный – Фрэнк соглашается попробовать загадочный галлюциногенный препарат, предложенный таинственным мужчиной. Проснувшись, он обнаруживает вокруг себя катастрофический хаос, но что еще страшнее – действие наркотика продолжается. Для Фрэнка начинается безумный квест, где стирается грань между реальностью и галлюцинациями.

Качество: WEB-DL 720p
Формат: MKV

Видео: MPEG-4 AVC, 1280x536, 3515 kbps, 23.976 fps
Аудио 1 Russian: АС3, 6 ch, 48 kHz, 384 kbps, 16 bits - DUB, iTunes
Аудио 2 English: EАС3, 6 ch, 48 kHz, 640 kbps, 16 bits - Original
скриншот  скриншот  скриншот  

Общее
Уникальный идентификатор : 245657382855520629796221503094655616512 (0xB8CFE4169E3B3181F1D46E4BF3A90600)
Полное имя : C:\The Wave (2019).mkv
Формат : Matroska
Версия формата : Version 4
Размер файла : 2,77 Гбайт
Продолжительность : 1 ч. 27 м.
Общий поток : 4542 Кбит/сек
Название фильма : «CVATVT»
Дата кодирования : UTC 2020-05-14 08:27:51
Программа кодирования : mkvmerge v45.0.0 ('Heaven in Pennies') 64-bit
Библиотека кодирования : libebml v1.3.10 + libmatroska v1.5.2
Обложка : Yes
Attachments : cover.jpg

Видео
Идентификатор : 1
Формат : AVC
Формат/Информация : Advanced Video Codec
Профиль формата : High@L3.1
Настройки формата : CABAC / 3 Ref Frames
Параметр CABAC формата : Да
Параметр RefFrames формата : 3 кадра
Идентификатор кодека : V_MPEG4/ISO/AVC
Продолжительность : 1 ч. 27 м.
Битрейт : 3515 Кбит/сек
Ширина : 1280 пикселей
Высота : 536 пикселей
Соотношение сторон : 2,40:1
Режим частоты кадров : Постоянный
Частота кадров : 23,976 (24000/1001) кадра/сек
Цветовое пространство : YUV
Субдискретизация насыщенности : 4:2:0
Битовая глубина : 8 бит
Тип развёртки : Прогрессивная
Бит/(Пиксели*Кадры) : 0.208
Размер потока : 2,09 Гбайт (75%)
Заголовок : USA (EchoWolf Productions)
Default : Да
Forced : Нет

Аудио #1
Идентификатор : 2
Формат : AC-3
Формат/Информация : Audio Coding 3
Коммерческое название : Dolby Digital
Идентификатор кодека : A_AC3
Продолжительность : 1 ч. 27 м.
Вид битрейта : Постоянный
Битрейт : 384 Кбит/сек
Каналы : 6 каналов
ChannelLayout : L R C LFE Ls Rs
Частота : 48,0 КГц
Частота кадров : 31,250 кадров/сек (1536 SPF)
Битовая глубина : 16 бит
Метод сжатия : С потерями
Размер потока : 240 Мбайт (8%)
Заголовок : Dub (iTunes)
Язык : Russian
ServiceKind/String : Complete Main
Default : Да
Forced : Нет

Аудио #2
Идентификатор : 3
Формат : E-AC-3
Формат/Информация : Enhanced AC-3
Коммерческое название : Dolby Digital Plus
Идентификатор кодека : A_EAC3
Продолжительность : 1 ч. 27 м.
Вид битрейта : Постоянный
Битрейт : 640 Кбит/сек
Каналы : 6 каналов
ChannelLayout : L R C LFE Ls Rs
Частота : 48,0 КГц
Частота кадров : 31,250 кадров/сек (1536 SPF)
Метод сжатия : С потерями
Размер потока : 400 Мбайт (14%)
Заголовок : Original
Язык : English
ServiceKind/String : Complete Main
Default : Нет
Forced : Нет

Текст #1
Идентификатор : 4
Формат : UTF-8
Идентификатор кодека : S_TEXT/UTF8
Идентификатор кодека/Информация : UTF-8 Plain Text
Заголовок : SDH
Язык : English
Default : Да
Forced : Нет

Текст #2
Идентификатор : 5
Формат : UTF-8
Идентификатор кодека : S_TEXT/UTF8
Идентификатор кодека/Информация : UTF-8 Plain Text
Заголовок : Full-length
Язык : English
Default : Нет
Forced : Нет

pb.wtf



Скачать Ловушка разума через торрент https://a.radikal.ru/a43/2005/4b/1451617548c8.png Скачать фильм Ловушка разума через торрент бесплантно в хорошем качестве Описание: Уставший юрист Фрэнк, защищающий интересы страховой компании, решает развеяться на вечеринке вместе с приятелем. Следующий его ... 9.7 10 9
Торрент: Зарегистрирован [2020-05-14 11:57] · скачан: 230 раз
Статус: √ проверено
Размер: 2.77 GB
Как cкачать? Как скачать Ловушка разума через торрент | qTorrent

% Раздел Тема Автор DL S | L
Фильмы 2019-2020 [DVDrip, WEB-DLRip, HDrip] (DUB, MVO) [ 1.42 GB ] Ловушка разума / Полный улет / The Wave [2019 BDRip] - Twi7ter Скачать
11 | 0
Фильмы [HD 720p, 1080p] (Хороший звук DUB, MVO) [ 3.47 GB ] Ловушка разума / Полный улет / The Wave [2019 BDRip 720p] bober100 Скачать
2 | 0
Фильмы (Blu-ray, BD-Remux, HDDVD) [ 16.08 GB ] Ловушка разума / Полный улет / The Wave [2019 BD Remux 1080p] bober100 Скачать
1 | 0
Фильмы [HD 720p, 1080p] (Хороший звук DUB, MVO) [ 9.28 GB ] Ловушка разума / Полный улет / The Wave [2019 BDRip 1080p] bober100 Скачать
2 | 0
Фильмы (WEB-DL 720p, 1080p) [ 4.03 GB ] Ловушка разума / Полный улет / The Wave [2019 WEB-DL 1080p] bober100 Скачать
4 | 0
Фильмы 2019-2020 [DVDrip, WEB-DLRip, HDrip] (DUB, MVO) [ 747 MB ] Ловушка разума / Полный улет / The Wave [2019 WEB-DLRip] bober100 Скачать
1 | 0
Фильмы 2019-2020 [DVDrip, WEB-DLRip, HDrip] (DUB, MVO) [ 1.46 GB ] Ловушка разума / Полный улет / The Wave [2019 BDRip] bober100 Скачать
1 | 0

28-11-2019 20:33  

Отключить всю рекламу на сайте

18-05-2020 15:05 Ловушка разума Скачать торрент  

Блин на одном дыхании посмотрелpb.wtf



    Дорогой пользователь! Огромная просьба, поблагодарите релизера, оцените раздачу и оставьте свои комментарий, если Вы скачали Ловушка разума через торрент бесплатно! Внесите свою лепту в развитие PiratBit!
    Комментировать посты могут только пользователи прошедшие не сложную регистрацию
    Показать сообщения:    

    Ловушка разума через торрент
    Скачать бесплатно Ловушка разума
    Ловушка разума скачать торрент
    Ловушка разума смотреть онлайн
    Cкачать фильм Ловушка разума бесплатно
    Ловушка разума скачать торрент в хорошем качестве
    Ловушка разума смотреть онлайн бесплатно в хорошем качестве


    Вы не можете начинать темы
    Вы не можете отвечать на сообщения
    Вы не можете редактировать свои сообщения
    Вы не можете удалять свои сообщения
    Вы не можете голосовать в опросах
    Вы не можете прикреплять файлы к сообщениям
    Вы можете скачивать файлы