Ссылка на приватное зеркало всего за 1$. Внимание количество ограничено!!!

iTunes

1+1

iTunes

мы

MV0

1

WEB-DLRip

Джокер

Пифагор

Ведьмак / The Witcher сериал

iTunes

ПШазам

iTunes

Оно 2

iTunes

30
pack

Вам бонус

ВАЖНО

!!Акция!!

Alien_RageХит недели

RePack

Resident Evil 21

ИГРА 18+

pack

RePack

jed

!!Акция!!

Alien_Rage

RePack

fifa19

RePack

Assassins Creed: Odyssey

RePack

NEED FOR SPEED™ PAYBACK

4 сезон

9 сезон

Бесстыжие 9 сезон

Все сериалы

все сериалы на PB.wtf

RePack

FAR CRY 5
  

Сошедшие с небес / Рухнувшие небеса / Falling Skies / Сезон: 1 / Серии: 1-10 из 10 (Грег Биман, Олатунде Осунсанми, Серджо Мимика-Геззан) [2011, Фантастика, приключения, драма, боевик, BDRip 1080p] MVO [TVShows] pb.wtf

Сошедшие с небес через торрент pb.wtf

Качают: 1 [ 0 KB/s ]
Размер: 27.58 GB | Добавлен: 1 мес. назад | Торрент скачан:4 раза
Скачать  

19-01-2020 03:51 Сошедшие с небес Скачать торрент  

Сошедшие с небес | Рухнувшие небеса | Falling Skies
Год выпуска: 2011
Страна: США, Канада
Жанр: Фантастика, приключения, драма, боевик
Продолжительность: ~ 00:42:00 серия
Перевод: Профессиональный (многоголосый) | TVShows
Субтитры: отсутствуют

Режиссер: Грег Биман, Олатунде Осунсанми, Серджо Мимика-Геззан

rating

В ролях: Ноа Уайли, Мун Бладгуд, Дрю Рой, Коннор Джессап, Максим Найт, Сейшелл Гэбриел, Уилл Пэттон, Сара Картер, Колин Каннингэм, Питер Синкода

Описание: Инопланетное вторжение стало для землян полной неожиданностью. Несколько выживших объединяются, чтобы ежедневно бороться за выживание и попытаться наладить связь с такими же как они «счастливчиками» из других городов, и дать отпор захватчикам из космоса.

Качество: BDRip 1080p
Формат: MKV

Видео: MPEG-4 AVC, 1920x1080, 23.976 fps, ~8368 kbps
Аудио#1: Русский, AC3, 48 kHz, 6 ch, 384 kbps
Аудио#2: Английский, AC3, 48 kHz, 6 ch, 640 kbps
скриншот  скриншот  скриншот  скриншот  

General
Unique ID : 42885376794076250717631569371096630402 (0x20436C52894B642976BF0719C68F4482)
Complete name : Falling.Skies.S01E01.1080p.TVShows.mkv
Format : Matroska
Format version : Version 4
File size : 2.76 GiB
Duration : 42 min 4 s
Overall bit rate : 9 395 kb/s
Encoded date : UTC 2020-01-17 07:36:14
Writing application : mkvmerge v33.1.0 ('Primrose') 64-bit
Writing library : libebml v1.3.7 + libmatroska v1.5.0

Video
ID : 1
Format : AVC
Format/Info : Advanced Video Codec
Format profile : High@L4.1
Format settings : CABAC / 4 Ref Frames
Format settings, CABAC : Yes
Format settings, Reference frames : 4 frames
Codec ID : V_MPEG4/ISO/AVC
Duration : 42 min 4 s
Bit rate : 8 368 kb/s
Width : 1 920 pixels
Height : 1 080 pixels
Display aspect ratio : 16:9
Frame rate mode : Constant
Frame rate : 23.976 (24000/1001) FPS
Color space : YUV
Chroma subsampling : 4:2:0
Bit depth : 8 bits
Scan type : Progressive
Bits/(Pixel*Frame) : 0.168
Stream size : 2.46 GiB (89%)
Writing library : x264 core 124 r2197 69a0443
Encoding settings : cabac=1 / ref=4 / deblock=1:0:0 / analyse=0x3:0x133 / me=umh / subme=7 / psy=1 / psy_rd=1.00:0.00 / mixed_ref=1 / me_range=16 / chroma_me=1 / trellis=1 / 8x8dct=1 / cqm=0 / deadzone=21,11 / fast_pskip=0 / chroma_qp_offset=-2 / threads=12 / sliced_threads=0 / nr=0 / decimate=1 / interlaced=0 / bluray_compat=0 / constrained_intra=0 / bframes=3 / b_pyramid=2 / b_adapt=1 / b_bias=0 / direct=1 / weightb=1 / open_gop=0 / weightp=2 / keyint=250 / keyint_min=23 / scenecut=40 / intra_refresh=0 / rc_lookahead=40 / rc=2pass / mbtree=1 / bitrate=8368 / ratetol=1.0 / qcomp=0.60 / qpmin=0 / qpmax=69 / qpstep=4 / cplxblur=20.0 / qblur=0.5 / ip_ratio=1.40 / aq=1:1.00
Language : English
Default : Yes
Forced : No

Audio #1
ID : 2
Format : AC-3
Format/Info : Audio Coding 3
Commercial name : Dolby Digital
Codec ID : A_AC3
Duration : 42 min 4 s
Bit rate mode : Constant
Bit rate : 384 kb/s
Channel(s) : 6 channels
Channel layout : L R C LFE Ls Rs
Sampling rate : 48.0 kHz
Frame rate : 31.250 FPS (1536 SPF)
Compression mode : Lossy
Stream size : 116 MiB (4%)
Title : TVShows
Language : Russian
Service kind : Complete Main
Default : Yes
Forced : Yes

Audio #2
ID : 3
Format : AC-3
Format/Info : Audio Coding 3
Commercial name : Dolby Digital
Codec ID : A_AC3
Duration : 42 min 4 s
Bit rate mode : Constant
Bit rate : 640 kb/s
Channel(s) : 6 channels
Channel layout : L R C LFE Ls Rs
Sampling rate : 48.0 kHz
Frame rate : 31.250 FPS (1536 SPF)
Compression mode : Lossy
Stream size : 193 MiB (7%)
Title : Original
Language : English
Service kind : Complete Main
Default : No
Forced : No

При каждом добавлении создаётся новый торрент. Чтобы начать докачку новой серии, пользователям необходимо сделать следующее:
  • остановить скачивание,
  • удалить старый торрент у себя из клиента (старые серии удалять не надо),
    скачать новый торрент и запустить его у себя в клиенте вместо старого, при этом указать клиенту путь в старую папку куда и должно происходить скачивание новых серий.

  • Ваш клиент при этом должен произвести хеширование (проверку) старой папки (если не производит сам - помогите ему сделать это), и будет докачивать только те серии которых у вас ещё нет. Старые серии при этом не удаляются, а продолжают раздаваться!
    Eсли вы уже удалили старые серии, то предотвратить повторную закачку старых серий можно, отжав галочку в соответствующих местах при запуске нового торрента. По возможности, желательно не удалять старые серии как можно дольше чтобы релизёр не столько продолжал раздавать старые серии, а смог сконцентрироваться на новых.
  • pb.wtf



    Скачать Сошедшие с небес через торрент https://c.radikal.ru/c42/2001/e7/37db18d56585.jpg Скачать фильм Сошедшие с небес через торрент бесплантно в хорошем качестве Описание: Инопланетное вторжение стало для землян полной неожиданностью. Несколько выживших объединяются, чтобы ежедневно бороться за ... 10 10 5
    Торрент: Зарегистрирован [2020-01-19 18:23] · скачан: 4 раз
    Статус: √ проверено
    Размер: 27.58 GB
    Как cкачать? Как скачать Сошедшие с небес через торрент | qTorrent

    % Раздел Тема Автор DL S | L
    Зарубежные сериалы [ 15.32 GB ] Сошедшие с небес / Рухнувшие небеса / Falling Skies / Сезон: 1 / Серии: 1-10 из 10 [2011 BDRip 720p] MVO [TVShows] bober100 Скачать
    1 | 0
    Зарубежные сериалы [ 5.2 GB ] Сошедшие с небес / Рухнувшие небеса / Falling Skies / Сезон: 5 / Серии 1-10 из 10 [2015 WEB-DLRip] MVO [LostFilm GEKADOL Скачать
    1 | 0

    28-11-2019 20:33  

    Отключить всю рекламу на сайте

      Дорогой пользователь! Огромная просьба, поблагодарите релизера, оцените раздачу и оставьте свои комментарий, если Вы скачали Сошедшие с небес через торрент бесплатно! Внесите свою лепту в развитие PiratBit!
      Комментировать посты могут только пользователи прошедшие не сложную регистрацию
      Показать сообщения:    

      Сошедшие с небес через торрент
      Скачать бесплатно Сошедшие с небес
      Сошедшие с небес скачать торрент
      Сошедшие с небес смотреть онлайн
      Cкачать фильм Сошедшие с небес бесплатно
      Сошедшие с небес скачать торрент в хорошем качестве
      Сошедшие с небес смотреть онлайн бесплатно в хорошем качестве


      Вы не можете начинать темы
      Вы не можете отвечать на сообщения
      Вы не можете редактировать свои сообщения
      Вы не можете удалять свои сообщения
      Вы не можете голосовать в опросах
      Вы не можете прикреплять файлы к сообщениям
      Вы можете скачивать файлы