2 сезон

iTunes

MVO

1

2 сезон

iTunes

iTunes

1 сезон

RePack

30

Новинка

ВАЖНО

ИГРА 18+

pack

RePack

MK11
pack

Легкие деньги

RePack

jed

RePack

fifa19

RePack

RDR2

RePack

NEED FOR SPEED™ PAYBACK

4 сезон

9 сезон

Бесстыжие 9 сезон

Все сериалы

все сериалы на PB.wtf

RePack

FAR CRY 5

Anonymous, доброй ночи, мы не успеваем собрать деньги на оплату серверов за декабрь и январь, помогите нам пожалуйста в это трудное время. В качестве благодарности мы отключим Вам всю рекламу на сайте (укажите свой ник в строку Ваше имя)!

×
  
Magnet ссылка

Затерянные в космосе / Lost in Space / Сезон: 2 / Серии: 1-10 из 10 (Тим Соутэм) [2019, фантастика, драма, детектив, приключения, семейный, WEB-DLRip] MVO [TVShows] pb.wtf

Затерянные в космосе через торрент pb.wtf

Размер: 7.4 GB | Добавлен: 1 год назад | Торрент скачан:68 раз
Скачать  

19-01-2020 04:05 Затерянные в космосе Скачать торрент  

Затерянные в космосе | Lost in Space
«Danger will find them»
Год выпуска: 2019
Страна: США
Жанр: Фантастика, драма, детектив, приключения, семейный
Продолжительность: ~01:00:00
Перевод: Профессиональный (многоголосый закадровый) | TVShows
Субтитры: отсутствуют

Режиссёр: Тим Соутэм, Дебора Чоу, Стивен Серджик

В ролях: Молли Паркер, Тоби Стивенс, Макс Дженкинс, Тейлор Расселл, Мина Сандвол, Игнасио Серричио, Паркер Поузи, Брайан Стил, Амелия Берстин, Раза Джеффри

Описание: 2046 год. Космический корабль теряется в космосе и терпит крушение на планете на расстоянии нескольких световых лет от планируемого места назначения. Его обитатели, семья Робинсонов, вынуждены приспособиться и выжить в новых условиях.

rating


Качество: WEB-DLRip
Формат: AVI

Видео: XVID, 704x320, 23.976 fps, ~2000 kbps avg, 0.37 bit/pixel
Аудио Rus: AC3, 48.0 KHz, 6 channels, 384 kbps
скриншот  скриншот  скриншот  скриншот  

General
Complete name : G:\Затерянные в космосе (Сезон 2) TVShows\Lost.In.Space.S02E01.WEB-DLRip.RGzsRutracker.Celta88.avi
Format : AVI
Format/Info : Audio Video Interleave
File size : 840 MiB
Duration : 49 min 4 s
Overall bit rate : 2 393 kb/s
Writing application : VirtualDubMod 1.5.10.3 | www.virtualdub-fr.org || (build 2550/release)
Writing library : VirtualDubMod build 2550/release

Video
ID : 0
Format : MPEG-4 Visual
Format profile : Advanced Simple@L5
Format settings, BVOP : 1
Format settings, QPel : No
Format settings, GMC : No warppoints
Format settings, Matrix : Custom
Codec ID : XVID
Codec ID/Hint : XviD
Duration : 49 min 4 s
Bit rate : 2 000 kb/s
Width : 704 pixels
Height : 320 pixels
Display aspect ratio : 2.2:1
Frame rate : 23.976 (24000/1001) FPS
Color space : YUV
Chroma subsampling : 4:2:0
Bit depth : 8 bits
Scan type : Progressive
Compression mode : Lossy
Bits/(Pixel*Frame) : 0.370
Stream size : 702 MiB (84%)
Writing library : XviD 73

Audio
ID : 1
Format : AC-3
Format/Info : Audio Coding 3
Mode extension : CM (complete main)
Format settings, Endianness : Big
Codec ID : 2000
Duration : 49 min 4 s
Bit rate mode : Constant
Bit rate : 384 kb/s
Channel(s) : 6 channels
Channel positions : Front: L C R, Side: L R, LFE
Sampling rate : 48.0 kHz
Frame rate : 31.250 FPS (1536 spf)
Bit depth : 16 bits
Compression mode : Lossy
Stream size : 135 MiB (16%)
Alignment : Split accross interleaves
Interleave, duration : 42 ms (1.00 video frame)
Interleave, preload duratio : 500 ms

pb.wtf



Скачать Затерянные в космосе через торрент https://funkyimg.com/i/2YKMV.jpg Скачать фильм Затерянные в космосе через торрент бесплантно в хорошем качестве Описание: 2046 год. Космический корабль теряется в космосе и терпит крушение на планете на расстоянии нескольких световых лет от ... 9.8 10 5
Info! Золотая раздача, скачанное не засчитывается.
Торрент: Зарегистрирован [2020-01-19 04:05] · скачан: 68 раз
Статус: √ проверено
Размер: 7.4 GB
Как cкачать? Как скачать Затерянные в космосе через торрент | UTorrent

% Раздел Тема Автор DL S | L
Зарубежные сериалы [ 57.49 GB ] Затерянные в космосе / Lost in Space / Сезон: 2 / Серии: 1-10 из 10 [2019 WEB-DL 1080p] MVO [TVShows] bober100 Скачать
1 | 0
Зарубежные сериалы [ 66.9 GB ] Затерянные в космосе / Lost in Space / Сезон: 2 / Серии: 1-10 из 10 [2019 UHD WEB-DLRip 2160p] DUB [Пифагор / Netflix] bober100 Скачать
1 | 0
Зарубежные сериалы [ 28.62 GB ] Затерянные в космосе / Lost in Space / Сезон: 2 / Серии: 1-10 из 10 [2019 WEBRip 720p] + [MVO] killermax2013 Скачать
1 | 0
Зарубежные сериалы [ 27.74 GB ] Затерянные в космосе / Lost in Space / Сезон: 2 / Серии: 1-10 из 10 [2019 WEB-DL 720p] MVO [LostFilm] bober100 Скачать
1 | 0
Зарубежные сериалы [ 6.33 GB ] Затерянные в космосе / Lost in Space / Сезон: 2 / Серии: 1-10 из 10 [2019 WEB-DLRip] MVO [LostFilm] bober100 Скачать
1 | 0
Зарубежные сериалы [ 16.79 GB ] Затерянные в космосе / Lost in Space / Сезон: 2 / Серии: 1-10 из 10 [2019 WEB-DL 1080p] DUB [Пифагор / Netflix] bober100 Скачать
3 | 0
Зарубежные сериалы [ 6.33 GB ] Затерянные в космосе / Lost in Space / Сезон: 2 / Серии: 1-10 из 10 [2019 WEB-DLRip] DUB [Пифагор / Netflix] bober100 Скачать
1 | 0

28-11-2019 20:33  

Отключить всю рекламу на сайте


    Дорогой пользователь! Огромная просьба, поблагодарите релизера, оцените раздачу и оставьте свои комментарий, если Вы скачали Затерянные в космосе через торрент бесплатно! Внесите свою лепту в развитие PiratBit!
    Комментировать посты могут только пользователи прошедшие не сложную регистрацию
    Показать сообщения:    

    Затерянные в космосе через торрент
    Скачать бесплатно Затерянные в космосе
    Затерянные в космосе скачать торрент
    Затерянные в космосе смотреть онлайн
    Cкачать фильм Затерянные в космосе бесплатно
    Затерянные в космосе скачать торрент в хорошем качестве
    Затерянные в космосе смотреть онлайн бесплатно в хорошем качестве


    Вы не можете начинать темы
    Вы не можете отвечать на сообщения
    Вы не можете редактировать свои сообщения
    Вы не можете удалять свои сообщения
    Вы не можете голосовать в опросах
    Вы не можете прикреплять файлы к сообщениям
    Вы можете скачивать файлы