Ссылка на приватное зеркало всего за 1$. Внимание количество ограничено!!!

iTunes

1+1

iTunes

мы

MV0

1

WEB-DLRip

Джокер

Пифагор

Ведьмак / The Witcher сериал

iTunes

ПШазам

iTunes

Оно 2

iTunes

30
pack

Вам бонус

ВАЖНО

!!Акция!!

Alien_RageХит недели

RePack

Resident Evil 21

ИГРА 18+

pack

RePack

jed

!!Акция!!

Alien_Rage

RePack

fifa19

RePack

Assassins Creed: Odyssey

RePack

NEED FOR SPEED™ PAYBACK

4 сезон

9 сезон

Бесстыжие 9 сезон

Все сериалы

все сериалы на PB.wtf

RePack

FAR CRY 5
  

Код Гиас: Лелуш Воскресший / Code Geass: Fukkatsu no Lelouch (Горо Танигути) [2019, Приключения, фантастика, WEB-DL 720p] DUB [iTunes] pb.wtf

Код Гиас: Лелуш Воскресший через торрент pb.wtf

Раздают: 15 [ 0 KB/s ] Качают: 1 [ 0 KB/s ]
Размер: 3.47 GB | Добавлен: 1 мес. 1 д. назад | Торрент скачан:76 раз
Скачать  

19-01-2020 09:48 Код Гиас: Лелуш Воскресший Скачать торрент  

Код Гиас: Лелуш Воскресший | Code Geass: Fukkatsu no Lelouch
Год выпуска: 2019
Страна: Япония
Жанр: Приключения, фантастика
Продолжительность: 01:52:47
Перевод: Дублированный | iTunes
Субтитры: отсутствуют

Режиссер: Горо Танигути

rating

В ролях: Юкана Ногами, Такахиро Сакурай, Дзюн Фукуяма, Каори Надзука, Ватару Такаги, Юко Гото, Акио Оцука, Кикуко Иноуэ, Аюму Мурасэ, Симадзаки Нобунага

Описание: В альтернативной реальности Британская Империя захватила мир, обрушив на непокорных мощь своей военной машины. Новая глава саги о Лелуше, опальном отпрыске императорского рода и великом революционере, который поставил целью своей жизни разрушить Британскую Империю. Благодаря встрече с таинственной зеленоволосой девушкой, Лелуш получил магический дар, так называемый Гиас, позволяющий подчинять себе волю других людей. Он достиг своей цели… и погиб. Однако его история на этом не закончилась.

Качество: WEB-DL 720p
Формат: MKV

Видео: MPEG-4 AVC, ~ 4013 Кбит/с, 1280x720
Аудио: Русский (AC3, 6 ch, ~ 384 Кбит/с)
#1 Код Гиас: Восставший Лелуш (первый сезон) - ТВ (25 эп. + 2 эп.-коллажа), оригинальный сериал, 2006
#2 Код Гиас: Восставший Лелуш OVA-1 - OVA (1 эп.), компиляция первого сезона, 2008
#3 Код Гиас: Восставший Лелуш (второй сезон) - ТВ (25 эп. + 9 спэшлов), продолжение, 2008
#4 Код Гиас: Восставший Лелуш OVA-2 - OVA (1 эп.), компиляция второго сезона, 2009
#5 Код Гиасс: Неприкаянный Акито - п/ф (5 эп.), spinoff (ответвление сюжета), 2012
#6 Code Geass: Hangyaku no Lelouch - Nunnally in Wonderland - OVA (1 эп.), spinoff (ответвление сюжета), 2012
#7 Код Гиас: Восставший Лелуш (компиляция) - п/ф (3 эп.), киноверсия двух сезонов, 2017
#8 Код Гиас: Лелуш воскресший - п/ф, продолжение, 2019

скриншот  скриншот  скриншот  скриншот  

Общее
Уникальный идентификатор : 106872991840982106854903580700685457584 (0x5066FD5165CE4ED9FBAB6CF94E1958B0)
Полное имя : D:\Code.Geass.Fukkatsu.no.Lelouch.2019.720p.WEB-DL.Rus.TeamHD.mkv
Формат : Matroska
Версия формата : Version 4 / Version 2
Размер файла : 3,47 Гбайт
Продолжительность : 1 ч. 52 м.
Общий поток : 4405 Кбит/сек
Дата кодирования : UTC 2020-01-18 19:25:10
Программа кодирования : mkvmerge v8.5.1 ('Where you lead I will follow') 64bit
Библиотека кодирования : libebml v1.3.3 + libmatroska v1.4.4

Видео
Идентификатор : 1
Формат : AVC
Формат/Информация : Advanced Video Codec
Профиль формата : High@L3.1
Параметр CABAC формата : Нет
Параметр RefFrames формата : 2 кадра
Идентификатор кодека : V_MPEG4/ISO/AVC
Продолжительность : 1 ч. 52 м.
Битрейт : 4103 Кбит/сек
Ширина : 1280 пикселей
Высота : 720 пикселей
Соотношение сторон : 16:9
Режим частоты кадров : Постоянный
Частота кадров : 24,000 кадра/сек
Цветовое пространство : YUV
Субдискретизация насыщенности : 4:2:0
Битовая глубина : 8 бит
Тип развёртки : Прогрессивная
Бит/(Пиксели*Кадры) : 0.178
Размер потока : 3,10 Гбайт (89%)
Заголовок : Main Program
Язык : Japanese
Default : Да
Forced : Нет
Цветовой диапазон : Limited
Основные цвета : BT.709
Характеристики трансфера : BT.709
Коэффициенты матрицы : BT.709

Аудио
Идентификатор : 2
Формат : AC-3
Формат/Информация : Audio Coding 3
Расширение режима : CM (complete main)
Параметр Endianness формата : Big
Идентификатор кодека : A_AC3
Продолжительность : 1 ч. 52 м.
Вид битрейта : Постоянный
Битрейт : 384 Кбит/сек
Каналы : 6 каналов
Расположение каналов : Front: L C R, Side: L R, LFE
Частота : 48,0 КГц
Частота кадров : 31,250 кадров/сек (1536 spf)
Метод сжатия : С потерями
Размер потока : 310 Мбайт (9%)
Заголовок : Russian DUB from iTunes Russian DD 5.1
Язык : Russian
Default : Да
Forced : Нет

Меню
00:00:00.000 : en:Глава 1
00:07:10.416 : en:Глава 2
00:14:52.041 : en:Глава 3
00:21:59.749 : en:Глава 4
00:29:47.040 : en:Глава 5
00:38:27.373 : en:Глава 6
00:48:23.623 : en:Глава 7
00:56:45.164 : en:Глава 8
01:02:46.997 : en:Глава 9
01:09:18.455 : en:Глава 10
01:16:41.205 : en:Глава 11
01:23:53.288 : en:Глава 12
01:31:48.996 : en:Глава 13
01:38:07.787 : en:Глава 14
01:44:00.995 : en:Глава 15

pb.wtf



Скачать Код Гиас: Лелуш Воскресший через торрент https://img15.lostpic.net/2020/01/19/62d9169941a70bcf10f31c0c522b979f.jpg Скачать фильм Код Гиас: Лелуш Воскресший через торрент бесплантно в хорошем качестве Описание: В альтернативной реальности Британская Империя захватила мир, обрушив на непокорных мощь своей военной машины. Новая глава саги о ... 10 10 4
Торрент: Зарегистрирован [2020-01-19 09:48] · скачан: 76 раз
Статус: √ проверено
Размер: 3.47 GB
Как cкачать? Как скачать Код Гиас: Лелуш Воскресший через торрент | qTorrent

28-11-2019 20:33  

Отключить всю рекламу на сайте

    Дорогой пользователь! Огромная просьба, поблагодарите релизера, оцените раздачу и оставьте свои комментарий, если Вы скачали Код Гиас: Лелуш Воскресший через торрент бесплатно! Внесите свою лепту в развитие PiratBit!
    Комментировать посты могут только пользователи прошедшие не сложную регистрацию
    Показать сообщения:    

    Код Гиас: Лелуш Воскресший через торрент
    Скачать бесплатно Код Гиас: Лелуш Воскресший
    Код Гиас: Лелуш Воскресший скачать торрент
    Код Гиас: Лелуш Воскресший смотреть онлайн
    Cкачать фильм Код Гиас: Лелуш Воскресший бесплатно
    Код Гиас: Лелуш Воскресший скачать торрент в хорошем качестве
    Код Гиас: Лелуш Воскресший смотреть онлайн бесплатно в хорошем качестве


    Вы не можете начинать темы
    Вы не можете отвечать на сообщения
    Вы не можете редактировать свои сообщения
    Вы не можете удалять свои сообщения
    Вы не можете голосовать в опросах
    Вы не можете прикреплять файлы к сообщениям
    Вы можете скачивать файлы