Ссылка на приватное зеркало нашего сайта всего за 1$. Внимание количество ограничено!!!

2 сезон

iTunes

1 сезон

1

2 сезон

2 сезон

iTunes

1 сезон

RePack

30

Ultimate

ВАЖНО

ИГРА 18+

pack

RePack

MK11
pack

Забери бонус

RePack

jed

!!Акция!!

Alien_Rage

RePack

fifa19

RePack

Assassins Creed: Odyssey

RePack

NEED FOR SPEED™ PAYBACK

4 сезон

9 сезон

Бесстыжие 9 сезон

Все сериалы

все сериалы на PB.wtf

RePack

FAR CRY 5
  

Сиротский Бруклин / Motherless Brooklyn (Эдвард Нортон) [2019, драма, криминал, BD Remux 1080p] DUB [Лицензия] pb.wtf

Сиротский Бруклин через торрент pb.wtf

Размер: 31.69 GB | Добавлен: 8 мес. назад | Торрент скачан:23 раза
Скачать  

19-01-2020 20:27 Сиротский Бруклин Скачать торрент  

Сиротский Бруклин | Motherless Brooklyn
Год выпуска: 2019
Страна: США
Студия: Class 5 Films, Odd Lot Entertainment, Warner Bros. Pictures
Жанр: драма, криминал
Продолжительность: 02:24:21
Перевод: Дублированный | Лицензия
Субтитры: Русские (Forced, full), английские

Режиссер: Эдвард Нортон

rating

В ролях: Эдвард Нортон, Гугу Эмбата-Ро, Алек Болдуин, Бобби Каннавале, Уиллем Дефо, Брюс Уиллис, Итан Сапли, Черри Джонс, Даллас Робертс, Джош Пэйс

Описание: Лайонел Эссрог, одинокий частный детектив с синдромом Туретта, решается начать расследование убийства своего наставника и единственного друга Фрэнка Минны. У него есть лишь несколько зацепок и сила разума, одержимого поставленной целью, чтобы распутать клубок тщательно скрываемых тайн, которые сохраняют баланс сил в самом Нью-Йорке. Расследование заводит его в джазовые клубы Гарлема, где рекой течет джин, опасные трущобы Бруклина и, наконец, позолоченные залы политической элиты мегаполиса. Он бросает вызов гангстерам, коррупции и самому опасному человеку в городе, чтобы очистить имя своего друга и спасти женщину, которая может спасти его самого.

Качество: BD Remux 1080p
Формат: MKV

Видео: MPEG-4 AVC, 1920x1080, 28.8 Mbit/s, 23.976 fps
Аудио #01: 48 kHz, AC3, 5.1, 448 Kbps | Дублированный | RUS |
Аудио #02: 48 kHz, DTS-HD MA, 5.1, 2163 Kbps | Оригинал | ENG |
скриншот  скриншот  скриншот  скриншот  скриншот  

General
Unique ID : 159176295869123565869997376607490259179 (0x77C03D4D95AF99944C8469F4AD51B8EB)
Complete name : E:Video111Motherless.Brooklyn.2019.Lic.BDREMUX.1080p.seleZen.mkv
Format : Matroska
Format version : Version 4
File size : 31.7 GiB
Duration : 2 h 24 min
Overall bit rate mode : Variable
Overall bit rate : 31.4 Mb/s
Movie name : Motherless Brooklyn 2019 from селезень
Encoded date : UTC 2020-03-11 00:18:47
Writing application : mkvmerge v40.0.0 ('Old Town Road + Pony') 64-bit
Writing library : libebml v1.3.9 + libmatroska v1.5.2

Video
ID : 1
Format : AVC
Format/Info : Advanced Video Codec
Format profile : High@L4.1
Format settings : CABAC / 4 Ref Frames
Format settings, CABAC : Yes
Format settings, Reference : 4 frames
Codec ID : V_MPEG4/ISO/AVC
Duration : 2 h 24 min
Bit rate mode : Variable
Bit rate : 28.8 Mb/s
Maximum bit rate : 34.0 Mb/s
Width : 1 920 pixels
Height : 1 080 pixels
Display aspect ratio : 16:9
Frame rate mode : Constant
Frame rate : 23.976 (24000/1001) FPS
Color space : YUV
Chroma subsampling : 4:2:0
Bit depth : 8 bits
Scan type : Progressive
Bits/(Pixel*Frame) : 0.579
Stream size : 29.0 GiB (92%)
Language : English
Default : Yes
Forced : No

Audio #1
ID : 2
Format : AC-3
Format/Info : Audio Coding 3
Commercial name : Dolby Digital
Codec ID : A_AC3
Duration : 2 h 24 min
Bit rate mode : Constant
Bit rate : 448 kb/s
Channel(s) : 6 channels
Channel layout : L R C LFE Ls Rs
Sampling rate : 48.0 kHz
Frame rate : 31.250 FPS (1536 SPF)
Compression mode : Lossy
Stream size : 463 MiB (1%)
Title : Dub [License]
Language : Russian
Service kind : Complete Main
Default : Yes
Forced : Yes

Audio #2
ID : 3
Format : DTS XLL
Format/Info : Digital Theater Systems
Commercial name : DTS-HD Master Audio
Codec ID : A_DTS
Duration : 2 h 24 min
Bit rate mode : Variable
Bit rate : 2 163 kb/s
Channel(s) : 6 channels
Channel layout : C L R Ls Rs LFE
Sampling rate : 48.0 kHz
Frame rate : 93.750 FPS (512 SPF)
Bit depth : 16 bits
Compression mode : Lossless
Stream size : 2.18 GiB (7%)
Title : Original
Language : English
Default : No
Forced : No

Text #1
ID : 4
Format : UTF-8
Codec ID : S_TEXT/UTF8
Codec ID/Info : UTF-8 Plain Text
Duration : 2 h 23 min
Bit rate : 4 b/s
Count of elements : 71
Stream size : 4.41 KiB (0%)
Title : Forced
Language : Russian
Default : Yes
Forced : Yes

Text #2
ID : 5
Format : UTF-8
Codec ID : S_TEXT/UTF8
Codec ID/Info : UTF-8 Plain Text
Duration : 2 h 23 min
Bit rate : 135 b/s
Count of elements : 2356
Stream size : 142 KiB (0%)
Title : Full
Language : Russian
Default : No
Forced : No

Text #3
ID : 6
Format : UTF-8
Codec ID : S_TEXT/UTF8
Codec ID/Info : UTF-8 Plain Text
Duration : 2 h 15 min
Bit rate : 80 b/s
Count of elements : 2332
Stream size : 80.4 KiB (0%)
Title : Full
Language : English
Default : No
Forced : No

Text #4
ID : 7
Format : UTF-8
Codec ID : S_TEXT/UTF8
Codec ID/Info : UTF-8 Plain Text
Duration : 2 h 16 min
Bit rate : 84 b/s
Count of elements : 2463
Stream size : 84.7 KiB (0%)
Title : SDH
Language : English
Default : No
Forced : No

Menu
00:00:00.000 : en:Chapter 01
00:09:57.847 : en:Chapter 02
00:19:20.326 : en:Chapter 03
00:29:14.586 : en:Chapter 04
00:38:47.575 : en:Chapter 05
00:46:33.958 : en:Chapter 06
00:54:01.822 : en:Chapter 07
01:02:12.604 : en:Chapter 08
01:08:42.618 : en:Chapter 09
01:17:48.205 : en:Chapter 10
01:26:55.919 : en:Chapter 11
01:34:07.350 : en:Chapter 12
01:41:25.705 : en:Chapter 13
01:50:29.289 : en:Chapter 14
02:00:21.005 : en:Chapter 15
02:07:02.824 : en:Chapter 16
02:17:16.603 : en:Chapter 17

pb.wtf



Скачать Сиротский Бруклин через торрент https://img16.lostpic.net/2020/01/18/39f8014c79bafb04cf0cdf11ee8b6e23.jpg Скачать фильм Сиротский Бруклин через торрент бесплантно в хорошем качестве Описание: Лайонел Эссрог, одинокий частный детектив с синдромом Туретта, решается начать расследование убийства своего наставника и ... 9.5 10 11
Торрент: Зарегистрирован [2020-03-11 01:06] · скачан: 23 раз
Статус: √ проверено
Размер: 31.69 GB
Как cкачать? Как скачать Сиротский Бруклин через торрент | qTorrent

% Раздел Тема Автор DL S | L
Фильмы (Blu-ray, BD-Remux, HDDVD) [ 38.47 GB ] Сиротский Бруклин / Motherless Brooklyn [2019 Blu-ray EUR 1080p] DUB [] bober100 Скачать
1 | 0
Фильмы [HD 720p, 1080p] (Хороший звук DUB, MVO) [ 9.51 GB ] Сиротский Бруклин / Motherless Brooklyn [2019 BDRip 720p] + 2x[AVO] killermax2013 Скачать
1 | 0
Фильмы 2019-2020 [DVDrip, WEB-DLRip, HDrip] (DUB, MVO) [ 2.18 GB ] Сиротский Бруклин / Motherless Brooklyn [2019 BDRip] - [] Twi7ter Скачать
10 | 0
Фильмы 2019-2020 [DVDrip, WEB-DLRip, HDrip] (DUB, MVO) [ 1.46 GB ] Сиротский Бруклин / Motherless Brooklyn [2019 BDRip] - [] Twi7ter Скачать
12 | 0
Фильмы 2019-2020 [DVDrip, WEB-DLRip, HDrip] (DUB, MVO) [ 1.45 GB ] Сиротский Бруклин / Motherless Brooklyn [2019 BDRip-AVC от OlLanDGroup] Skandar2019 Скачать
2 | 0
Фильмы [HD 720p, 1080p] (Хороший звук DUB, MVO) [ 5.78 GB ] Сиротский Бруклин / Motherless Brooklyn [2019 BDRip 1080p] killermax2013 Скачать
2 | 0
Фильмы 2019-2020 [DVDrip, WEB-DLRip, HDrip] (DUB, MVO) [ 2.17 GB ] Сиротский Бруклин / Motherless Brooklyn [2019 HDRip-AVC] bober100 Скачать
7 | 0

28-11-2019 20:33  

Отключить всю рекламу на сайте

    Дорогой пользователь! Огромная просьба, поблагодарите релизера, оцените раздачу и оставьте свои комментарий, если Вы скачали Сиротский Бруклин через торрент бесплатно! Внесите свою лепту в развитие PiratBit!
    Комментировать посты могут только пользователи прошедшие не сложную регистрацию
    Показать сообщения:    

    Сиротский Бруклин через торрент
    Скачать бесплатно Сиротский Бруклин
    Сиротский Бруклин скачать торрент
    Сиротский Бруклин смотреть онлайн
    Cкачать фильм Сиротский Бруклин бесплатно
    Сиротский Бруклин скачать торрент в хорошем качестве
    Сиротский Бруклин смотреть онлайн бесплатно в хорошем качестве


    Вы не можете начинать темы
    Вы не можете отвечать на сообщения
    Вы не можете редактировать свои сообщения
    Вы не можете удалять свои сообщения
    Вы не можете голосовать в опросах
    Вы не можете прикреплять файлы к сообщениям
    Вы можете скачивать файлы