Ссылка на приватное зеркало нашего сайта всего за 1$. Внимание количество ограничено!!!

2 сезон

iTunes

1 сезон

1

iTunes

iTunes

iTunes

1 сезон

RePack

30

ИГРА 18+

pack

ВАЖНО

!!Акция!!

Alien_RageХит недели

RePack

MK11
pack

Забери бонус

RePack

jed

!!Акция!!

Alien_Rage

RePack

fifa19

RePack

Assassins Creed: Odyssey

RePack

NEED FOR SPEED™ PAYBACK

4 сезон

9 сезон

Бесстыжие 9 сезон

Все сериалы

все сериалы на PB.wtf

RePack

FAR CRY 5
  

Легенда Феррари / Сезон: 1 / Серии: 1-12 из 12 (Константин Максимов) [2020, история, детектив, SATRip] pb.wtf

Легенда Феррари через торрент pb.wtf

Раздают: 1 [ 0 KB/s ]
Размер: 7.03 GB | Добавлен: 8 мес. назад | Торрент скачан:212 раз
Скачать  

20-01-2020 16:45 Легенда Феррари Скачать торрент  

Легенда Феррари
Год выпуска: 2020
Страна: Россия
Жанр: история, детектив
Продолжительность: ~ 00:50:00
Субтитры: отсутствуют

Режиссер: Константин Максимов



В ролях: Ольга Погодина, Павел Делонг, Константин Крюков, Николай Добрынин, Александр Бухаров, Сергей Горобченко, Дмитрий Исаев, Евгений Коряковский, Сергей Тезов, Василий Седых, Никита Салопин, Поля Полякова, Артём Михалков, Михаил Химичев, Ева Авеева, Евгений Березовский, Алёна Ковалёва

Описание: Первые годы после Октябрьской революции. После неудачного покушения на барона Врангеля и гибели агента разведуправления, разрабатывается новый хитроумный план по реализации «Крымской миссии». На это дело назначают лучшего агента — Елену Голубовскую. В Крыму Голубовская появляется уже как Эль Феррари — одарённая итальянская поэтесса. Её задачей становится устранение Врангеля с целью деморализации белого движения, а также контроль над операцией по похищению золота. Её планам мешает Максимилиан Эрмлер, журналист местной газеты, оказавшийся по совместительству агентом британской разведки.

Качество: SATRip
Формат: AVI

Видео: XviD, ~ 1630 Кбит/с, 720x400
Аудио: MP3, 2 ch, 192 Кбит/с
скриншот  скриншот  скриншот  скриншот  

Общее
Полное имя : C:\legenda.ferrari.2019.XviD.SATRip.25Kuzmich\legenda.ferrari.e01.XviD.SATRip.25Kuzmich.avi
Формат : AVI
Формат/Информация : Audio Video Interleave
Размер файла : 600 Мбайт
Продолжительность : 45 м. 46 с.
Общий поток : 1833 Кбит/сек
Программа кодирования : VirtualDubMod 1.5.10.3 | www.virtualdub-fr.org || (build 2550/release)
Библиотека кодирования : VirtualDubMod build 2550/release

Видео
Идентификатор : 0
Формат : MPEG-4 Visual
Профиль формата : Advanced Simple@L5
Настройки формата : BVOP1
Параметр BVOP формата : 1
Параметр QPel формата : Нет
Параметр GMC формата : Без точки перехода
Параметр матрицы формата : Default (MPEG)
Идентификатор кодека : XVID
Идентификатор кодека/Подсказка : XviD
Продолжительность : 45 м. 46 с.
Битрейт : 1630 Кбит/сек
Ширина : 720 пикселей
Высота : 400 пикселей
Соотношение сторон : 16:9
Частота кадров : 25,000 кадров/сек
Цветовое пространство : YUV
Субдискретизация насыщенности : 4:2:0
Битовая глубина : 8 бит
Тип развёртки : Прогрессивная
Метод сжатия : С потерями
Бит/(Пиксели*Кадры) : 0.217
Размер потока : 510 Мбайт (85%)
Библиотека кодирования : XviD 73

Аудио
Идентификатор : 1
Формат : MPEG Audio
Версия формата : Version 1
Профиль формата : Layer 3
Настройки формата : Joint stereo / MS Stereo
Идентификатор кодека : 55
Идентификатор кодека/Подсказка : MP3
Продолжительность : 45 м. 46 с.
Вид битрейта : Постоянный
Битрейт : 192 Кбит/сек
Каналы : 2 канала
Частота : 48,0 КГц
Частота кадров : 41,667 кадра/сек (1152 SPF)
Метод сжатия : С потерями
Размер потока : 62,9 Мбайт (10%)
Выравнивание : Соединение по промежуткам
Библиотека кодирования : LAME3.99r
Настройки программы : -m j -V 4 -q 2 -lowpass 18.6 -b 192

Внимание! Раздача ведётся путём добавления новых серий; при каждом добавлении создаётся новый торрент. Чтобы начать докачку новой серии, пользователям необходимо сделать следующее:
(1) остановить скачивание,
(2) удалить старый торрент у себя из клиента (старые серии удалять не надо),
(3) скачать новый торрент и запустить его у себя в клиенте вместо старого, при этом указать клиенту путь в старую папку куда и должно происходить скачивание новых серий.

Ваш клиент при этом должен произвести хеширование (проверку) старой папки (если не производит сам - помогите ему сделать это), и будет докачивать только те серии которых у вас ещё нет. Старые серии при этом не удаляются, а продолжают раздаваться!

Eсли вы уже удалили старые серии, то предотвратить повторную закачку старых серий можно, отжав галочку в соответсвующих местах при запуске нового торрента. По возможности, желательно не удалять старые серии как можно дольше чтобы релизёр не столько продолжал раздавать старые серии, а смог сконцентрироваться на новых.
pb.wtf



Скачать Легенда Феррари через торрент https://i111.fastpic.ru/big/2020/0120/6d/11bfeb43488890277b7305d15981786d.jpg Скачать фильм Легенда Феррари через торрент бесплантно в хорошем качестве Описание: Первые годы после Октябрьской революции. После неудачного покушения на барона Врангеля и гибели агента разведуправления, ... 9.3 10 6
Торрент: Зарегистрирован [2020-01-24 18:01] · скачан: 212 раз
Статус: √ проверено
Размер: 7.03 GB
Как cкачать? Как скачать Легенда Феррари через торрент | qTorrent

% Раздел Тема Автор DL S | L
Наши сериалы [ 14.67 GB ] Легенда Феррари / Сезон: 1 / Серии: 1-12 из 12 [2020 история WEBRip 720p] bober100 Скачать
1 | 0
Наши сериалы [ 8.45 GB ] Легенда Феррари / Сезон: 1 / Серии: 1-12 из 12 [2020 история WEBRip-AVC] bober100 Скачать
1 | 0
Наши сериалы [ 7.16 GB ] Легенда Феррари / Сезон: 1 / Серии: 1-12 из 12 [2020 история WEBRip] bober100 Скачать
2 | 1
Наши сериалы [ 21.34 GB ] Легенда Феррари / Сезон: 1 / Серии: 1-12 из 12 [2020 история WEB-DL 1080p] bober100 Скачать
1 | 0

28-11-2019 20:33  

Отключить всю рекламу на сайте

    Дорогой пользователь! Огромная просьба, поблагодарите релизера, оцените раздачу и оставьте свои комментарий, если Вы скачали Легенда Феррари через торрент бесплатно! Внесите свою лепту в развитие PiratBit!
    Комментировать посты могут только пользователи прошедшие не сложную регистрацию
    Показать сообщения:    

    Легенда Феррари через торрент
    Скачать бесплатно Легенда Феррари
    Легенда Феррари скачать торрент
    Легенда Феррари смотреть онлайн
    Cкачать фильм Легенда Феррари бесплатно
    Легенда Феррари скачать торрент в хорошем качестве
    Легенда Феррари смотреть онлайн бесплатно в хорошем качестве


    Вы не можете начинать темы
    Вы не можете отвечать на сообщения
    Вы не можете редактировать свои сообщения
    Вы не можете удалять свои сообщения
    Вы не можете голосовать в опросах
    Вы не можете прикреплять файлы к сообщениям
    Вы можете скачивать файлы