2 сезон

iTunes

1 сезон

1

iTunes

iTunes

iTunes

1 сезон

RePack

30

ИГРА 18+

pack

ВАЖНО

!!Акция!!

Alien_RageХит недели

RePack

MK11
pack

Забери бонус

RePack

jed

!!Акция!!

Alien_Rage

RePack

fifa19

RePack

Assassins Creed: Odyssey

RePack

NEED FOR SPEED™ PAYBACK

4 сезон

9 сезон

Бесстыжие 9 сезон

Все сериалы

все сериалы на PB.wtf

RePack

FAR CRY 5
  

Легенда Феррари / Сезон: 1 / Серии: 1-12 из 12 (Константин Максимов) [2020, история, детектив, WEBRip] pb.wtf

Легенда Феррари через торрент pb.wtf

Размер: 7.16 GB | Добавлен: 9 мес. назад | Торрент скачан:64 раза
Скачать  

20-01-2020 19:42 Легенда Феррари Скачать торрент  

Легенда Феррари
Год выпуска: 2020
Страна: Россия
Жанр: история, детектив
Продолжительность: ~ 00:50:00
Субтитры: отсутствуют

Режиссер: Константин Максимов



В ролях: Ольга Погодина, Павел Делонг, Константин Крюков, Николай Добрынин, Александр Бухаров, Сергей Горобченко, Дмитрий Исаев, Евгений Коряковский, Сергей Тезов, Василий Седых, Никита Салопин, Поля Полякова, Артём Михалков, Михаил Химичев, Ева Авеева, Евгений Березовский, Алёна Ковалёва

Описание: Первые годы после Октябрьской революции. После неудачного покушения на барона Врангеля и гибели агента разведуправления, разрабатывается новый хитроумный план по реализации «Крымской миссии». На это дело назначают лучшего агента — Елену Голубовскую. В Крыму Голубовская появляется уже как Эль Феррари — одарённая итальянская поэтесса. Её задачей становится устранение Врангеля с целью деморализации белого движения, а также контроль над операцией по похищению золота. Её планам мешает Максимилиан Эрмлер, журналист местной газеты, оказавшийся по совместительству агентом британской разведки.

Качество: WEBRip
Формат: AVI

Видео: XviD, ~ 1600 Кбит/с, 720x400
Аудио: AC3, 2 ch, 192 Кбит/с
скриншот  скриншот  скриншот  скриншот  скриншот  

General
Complete name : C:06354Легенда Феррари.2019. WEB-DLRip. Files-x1. Легенда Феррари.2019. WEB-DLRip. Files-x.avi
Format : AVI
Format/Info : Audio Video Interleave
File size : 594 MiB
Duration : 46mn 5s
Overall bit rate : 1 802 Kbps
Writing application : VirtualDubMod 1.5.10.3 | www.virtualdub-fr.org || (build 2550/release)
Writing library : VirtualDubMod build 2550/release

Video
ID : 0
Format : MPEG-4 Visual
Format profile : Advanced Simple@L5
Format settings, BVOP : 1
Format settings, QPel : No
Format settings, GMC : No warppoints
Format settings, Matrix : Custom
Codec ID : XVID
Codec ID/Hint : XviD
Duration : 46mn 5s
Bit rate : 1 600 Kbps
Width : 720 pixels
Height : 400 pixels
Display aspect ratio : 16:9
Frame rate : 25.000 fps
Color space : YUV
Chroma subsampling : 4:2:0
Bit depth : 8 bits
Scan type : Progressive
Compression mode : Lossy
Bits/(Pixel*Frame) : 0.222
Stream size : 528 MiB (89%)
Writing library : XviD 73

Audio
ID : 1
Format : AC-3
Format/Info : Audio Coding 3
Mode extension : CM (complete main)
Codec ID : 2000
Duration : 46mn 5s
Bit rate mode : Constant
Bit rate : 192 Kbps
Channel(s) : 2 channels
Channel positions : Front: L R
Sampling rate : 48.0 KHz
Bit depth : 16 bits
Compression mode : Lossy
Stream size : 63.3 MiB (11%)
Alignment : Split accross interleaves
Interleave, duration : 40 ms (1.00 video frame)
Interleave, preload duration : 500 ms

Внимание! Раздача ведётся путём добавления новых серий; при каждом добавлении создаётся новый торрент. Чтобы начать докачку новой серии, пользователям необходимо сделать следующее:
(1) остановить скачивание,
(2) удалить старый торрент у себя из клиента (старые серии удалять не надо),
(3) скачать новый торрент и запустить его у себя в клиенте вместо старого, при этом указать клиенту путь в старую папку куда и должно происходить скачивание новых серий.

Ваш клиент при этом должен произвести хеширование (проверку) старой папки (если не производит сам - помогите ему сделать это), и будет докачивать только те серии которых у вас ещё нет. Старые серии при этом не удаляются, а продолжают раздаваться!

Eсли вы уже удалили старые серии, то предотвратить повторную закачку старых серий можно, отжав галочку в соответсвующих местах при запуске нового торрента. По возможности, желательно не удалять старые серии как можно дольше чтобы релизёр не столько продолжал раздавать старые серии, а смог сконцентрироваться на новых.
pb.wtf



Скачать Легенда Феррари через торрент https://i111.fastpic.ru/big/2020/0120/b2/b93e70ff2db037b2b3b4ee0ce667cdb2.jpg Скачать фильм Легенда Феррари через торрент бесплантно в хорошем качестве Описание: Первые годы после Октябрьской революции. После неудачного покушения на барона Врангеля и гибели агента разведуправления, ... 9.6 10 7
Торрент: Зарегистрирован [2020-01-26 00:07] · скачан: 64 раз
Статус: √ проверено
Размер: 7.16 GB
Как cкачать? Как скачать Легенда Феррари через торрент | qTorrent

% Раздел Тема Автор DL S | L
Наши сериалы [ 14.67 GB ] Легенда Феррари / Сезон: 1 / Серии: 1-12 из 12 [2020 история WEBRip 720p] bober100 Скачать
1 | 0
Наши сериалы [ 8.45 GB ] Легенда Феррари / Сезон: 1 / Серии: 1-12 из 12 [2020 история WEBRip-AVC] bober100 Скачать
1 | 0
Наши сериалы [ 21.34 GB ] Легенда Феррари / Сезон: 1 / Серии: 1-12 из 12 [2020 история WEB-DL 1080p] bober100 Скачать
2 | 0
Наши сериалы [ 7.03 GB ] Легенда Феррари / Сезон: 1 / Серии: 1-12 из 12 [2020 история SATRip] bober100 Скачать
1 | 0

28-11-2019 20:33  

Отключить всю рекламу на сайте

    Дорогой пользователь! Огромная просьба, поблагодарите релизера, оцените раздачу и оставьте свои комментарий, если Вы скачали Легенда Феррари через торрент бесплатно! Внесите свою лепту в развитие PiratBit!
    Комментировать посты могут только пользователи прошедшие не сложную регистрацию
    Показать сообщения:    

    Легенда Феррари через торрент
    Скачать бесплатно Легенда Феррари
    Легенда Феррари скачать торрент
    Легенда Феррари смотреть онлайн
    Cкачать фильм Легенда Феррари бесплатно
    Легенда Феррари скачать торрент в хорошем качестве
    Легенда Феррари смотреть онлайн бесплатно в хорошем качестве


    Вы не можете начинать темы
    Вы не можете отвечать на сообщения
    Вы не можете редактировать свои сообщения
    Вы не можете удалять свои сообщения
    Вы не можете голосовать в опросах
    Вы не можете прикреплять файлы к сообщениям
    Вы можете скачивать файлы