Ссылка на приватное зеркало нашего сайта всего за 1$. Внимание количество ограничено!!!

2 сезон

iTunes

1 сезон

1

iTunes

iTunes

iTunes

1 сезон

RePack

30

ИГРА 18+

pack

ВАЖНО

!!Акция!!

Alien_RageХит недели

RePack

MK11
pack

Забери бонус

RePack

jed

!!Акция!!

Alien_Rage

RePack

fifa19

RePack

Assassins Creed: Odyssey

RePack

NEED FOR SPEED™ PAYBACK

4 сезон

9 сезон

Бесстыжие 9 сезон

Все сериалы

все сериалы на PB.wtf

RePack

FAR CRY 5
  

Легенда Феррари / Сезон: 1 / Серии: 1-12 из 12 (Константин Максимов) [2020, история, детектив, WEBRip 720p] pb.wtf

Легенда Феррари через торрент pb.wtf

Размер: 14.67 GB | Добавлен: 8 мес. назад | Торрент скачан:46 раз
Скачать  

21-01-2020 03:42 Легенда Феррари Скачать торрент  

Легенда Феррари
Год выпуска: 2020
Страна: Россия
Жанр: история, детектив
Продолжительность: ~ 00:50:00
Субтитры: отсутствуют

Режиссер: Константин Максимов



В ролях: Ольга Погодина, Павел Делонг, Константин Крюков, Николай Добрынин, Александр Бухаров, Сергей Горобченко, Дмитрий Исаев, Евгений Коряковский, Сергей Тезов, Василий Седых, Никита Салопин, Поля Полякова, Артём Михалков, Михаил Химичев, Ева Авеева, Евгений Березовский, Алёна Ковалёва

Описание: Первые годы после Октябрьской революции. После неудачного покушения на барона Врангеля и гибели агента разведуправления, разрабатывается новый хитроумный план по реализации «Крымской миссии». На это дело назначают лучшего агента — Елену Голубовскую. В Крыму Голубовская появляется уже как Эль Феррари — одарённая итальянская поэтесса. Её задачей становится устранение Врангеля с целью деморализации белого движения, а также контроль над операцией по похищению золота. Её планам мешает Максимилиан Эрмлер, журналист местной газеты, оказавшийся по совместительству агентом британской разведки.

Качество: WEBRip 720p
Формат: MKV

Видео: MPEG4 AVC Video, H264, 1280x720, 25 fps, ~3500 kbps, 0.152 bit/pixel
Аудио: AC3 Dolby Digital, 48.0 kHz, 2/0 (L,R) ch, 192 kbps
скриншот  скриншот  скриншот  скриншот  скриншот  

General
Unique ID : 192394113619427987619179054425323459018 (0x90BDC22A10733F48AC6730BEED89D1CA)
Complete name : D:\Legenda.ferrari.2019.WEB-DLRip.(720p).ExKinoRay\Legenda.ferrari.E01.2019.WEB-DLRip.(720p).ExKinoRay.mkv
Format : Matroska
Format version : Version 2
File size : 1.19 GiB
Duration : 46 min 5 s
Overall bit rate : 3 692 kb/s
Encoded date : UTC 2020-01-20 20:05:26
Writing application : mkvmerge v7.8.0 ('River Man') 32bit built on Apr 3 2015 12:11:22
Writing library : libebml v1.3.1 + libmatroska v1.4.2

Video
ID : 1
Format : AVC
Format/Info : Advanced Video Codec
Format profile : High@L4.1
Format settings : CABAC / 9 Ref Frames
Format settings, CABAC : Yes
Format settings, ReFrames : 9 frames
Codec ID : V_MPEG4/ISO/AVC
Duration : 46 min 5 s
Bit rate : 3 500 kb/s
Width : 1 280 pixels
Height : 720 pixels
Display aspect ratio : 16:9
Frame rate mode : Constant
Frame rate : 25.000 FPS
Color space : YUV
Chroma subsampling : 4:2:0
Bit depth : 8 bits
Scan type : Progressive
Bits/(Pixel*Frame) : 0.152
Stream size : 1.10 GiB (93%)
Writing library : x264 core 146 r2538 121396c
Encoding settings : cabac=1 / ref=9 / deblock=1:-3:-3 / analyse=0x3:0x113 / me=umh / subme=11 / psy=1 / psy_rd=1.00:0.20 / mixed_ref=1 / me_range=32 / chroma_me=1 / trellis=2 / 8x8dct=1 / cqm=0 / deadzone=21,11 / fast_pskip=1 / chroma_qp_offset=-3 / threads=24 / lookahead_threads=10 / sliced_threads=0 / nr=0 / decimate=0 / interlaced=0 / bluray_compat=0 / constrained_intra=0 / bframes=10 / b_pyramid=2 / b_adapt=2 / b_bias=0 / direct=3 / weightb=1 / open_gop=0 / weightp=2 / keyint=250 / keyint_min=25 / scenecut=40 / intra_refresh=0 / rc_lookahead=60 / rc=2pass / mbtree=1 / bitrate=3500 / ratetol=1.0 / qcomp=0.60 / qpmin=0 / qpmax=69 / qpstep=4 / cplxblur=20.0 / qblur=0.5 / vbv_maxrate=14000 / vbv_bufsize=14000 / nal_hrd=none / filler=0 / ip_ratio=1.40 / aq=3:1.40
Default : Yes
Forced : No
Color range : Limited
Color primaries : BT.709
Transfer characteristics : BT.709
Matrix coefficients : BT.709

Audio
ID : 2
Format : AC-3
Format/Info : Audio Coding 3
Codec ID : A_AC3
Duration : 46 min 5 s
Bit rate mode : Constant
Bit rate : 192 kb/s
Channel(s) : 2 channels
Channel positions : Front: L R
Sampling rate : 48.0 kHz
Frame rate : 31.250 FPS (1536 SPF)
Bit depth : 16 bits
Compression mode : Lossy
Stream size : 63.3 MiB (5%)
Service kind : Complete Main
Default : Yes
Forced : No

Внимание! Раздача ведётся путём добавления новых серий; при каждом добавлении создаётся новый торрент. Чтобы начать докачку новой серии, пользователям необходимо сделать следующее:
(1) остановить скачивание,
(2) удалить старый торрент у себя из клиента (старые серии удалять не надо),
(3) скачать новый торрент и запустить его у себя в клиенте вместо старого, при этом указать клиенту путь в старую папку куда и должно происходить скачивание новых серий.

Ваш клиент при этом должен произвести хеширование (проверку) старой папки (если не производит сам - помогите ему сделать это), и будет докачивать только те серии которых у вас ещё нет. Старые серии при этом не удаляются, а продолжают раздаваться!

Eсли вы уже удалили старые серии, то предотвратить повторную закачку старых серий можно, отжав галочку в соответсвующих местах при запуске нового торрента. По возможности, желательно не удалять старые серии как можно дольше чтобы релизёр не столько продолжал раздавать старые серии, а смог сконцентрироваться на новых.
pb.wtf



Скачать Легенда Феррари через торрент https://i111.fastpic.ru/big/2020/0120/b2/b93e70ff2db037b2b3b4ee0ce667cdb2.jpg Скачать фильм Легенда Феррари через торрент бесплантно в хорошем качестве Описание: Первые годы после Октябрьской революции. После неудачного покушения на барона Врангеля и гибели агента разведуправления, ... 10 10 2
Торрент: Зарегистрирован [2020-01-26 00:08] · скачан: 46 раз
Статус: √ проверено
Размер: 14.67 GB
Как cкачать? Как скачать Легенда Феррари через торрент | qTorrent

% Раздел Тема Автор DL S | L
Наши сериалы [ 8.45 GB ] Легенда Феррари / Сезон: 1 / Серии: 1-12 из 12 [2020 история WEBRip-AVC] bober100 Скачать
1 | 0
Наши сериалы [ 7.16 GB ] Легенда Феррари / Сезон: 1 / Серии: 1-12 из 12 [2020 история WEBRip] bober100 Скачать
1 | 1
Наши сериалы [ 21.34 GB ] Легенда Феррари / Сезон: 1 / Серии: 1-12 из 12 [2020 история WEB-DL 1080p] bober100 Скачать
1 | 0
Наши сериалы [ 7.03 GB ] Легенда Феррари / Сезон: 1 / Серии: 1-12 из 12 [2020 история SATRip] bober100 Скачать
2 | 0

28-11-2019 20:33  

Отключить всю рекламу на сайте

    Дорогой пользователь! Огромная просьба, поблагодарите релизера, оцените раздачу и оставьте свои комментарий, если Вы скачали Легенда Феррари через торрент бесплатно! Внесите свою лепту в развитие PiratBit!
    Комментировать посты могут только пользователи прошедшие не сложную регистрацию
    Показать сообщения:    

    Легенда Феррари через торрент
    Скачать бесплатно Легенда Феррари
    Легенда Феррари скачать торрент
    Легенда Феррари смотреть онлайн
    Cкачать фильм Легенда Феррари бесплатно
    Легенда Феррари скачать торрент в хорошем качестве
    Легенда Феррари смотреть онлайн бесплатно в хорошем качестве


    Вы не можете начинать темы
    Вы не можете отвечать на сообщения
    Вы не можете редактировать свои сообщения
    Вы не можете удалять свои сообщения
    Вы не можете голосовать в опросах
    Вы не можете прикреплять файлы к сообщениям
    Вы можете скачивать файлы