2 сезон

iTunes

MVO

1

2 сезон

iTunes

iTunes

1 сезон

RePack

30

Ultimate

ВАЖНО

ИГРА 18+

pack

RePack

MK11
pack

Легкие деньги

RePack

jed

RePack

fifa19

RePack

RDR2

RePack

NEED FOR SPEED™ PAYBACK

4 сезон

9 сезон

Бесстыжие 9 сезон

Все сериалы

все сериалы на PB.wtf

RePack

FAR CRY 5

Anonymous, доброе утро, мы не успеваем собрать деньги на оплату серверов за декабрь и январь, помогите нам пожалуйста в это трудное время. В качестве благодарности мы отключим Вам всю рекламу на сайте (укажите свой ник в строку Ваше имя)!

×
  
Magnet ссылка

13 причин почему / 13 Reasons Why / Сезон: 1-4 / Серии: 1-59 из 59 (Джессика Ю, Кайл Патрик Альварез, Грегг Араки) [2017-2020, триллер, драма, детектив, WEB-DLRip] DUB [BTI Studios & Пифагор / Netflix] pb.wtf

13 причин почему через торрент pb.wtf

Размер: 57.96 GB | Добавлен: 7 мес. назад | Торрент скачан:31 раз
Скачать  

21-01-2020 08:50 13 причин почему Скачать торрент  

13 причин, почему | 13 Reasons Why«Зачем мертвой девушке лгать?»
Год выпуска: 2017-2020
Страна: США
Жанр: триллер, драма, детектив
Продолжительность: ~00:50:00
Перевод: Дублированный | BTI Studios & Пифагор по заказу Netflix
Субтитры: Русские (Full, Forced), английские (Netflix)

Режиссер: Джессика Ю, Кайл Патрик Альварез, Грегг Араки

rating


В ролях: Дилан Миннетт, Кэтрин Лэнгфорд, Кейт Уолш, Кристиан Наварро, Майлс Хейзер, Алиша Боэ, Брэндон Флинн, Дерек Люк, Джастин Прентис, Девин Друид

Описание: Однажды Клэй Дженсен находит на пороге своего дома коробку с аудиокассетами, записанными Ханной Бейкер. Он был влюблен в эту девушку в школе, пока она однажды не покончила жизнь самоубийством. В своих записях Ханна указала 13 причин, которые толкнули её на это. И Клэй — одна из них.

Качество: WEB-DLRip
Формат: AVI

Видео: 720x400, 704x352, 704x320 at 23.976 fps, XviD, ~2000 kbps avg
Аудио Rus: AC3, 48 kHz, 3/2 (L,C,R,l,r) + LFE ch, 448 Кбит/сек
Аудио Eng: AC3, 48 kHz, 3/2 (L,C,R,l,r) + LFE ch, 448 Кбит/сек
скриншот  скриншот  скриншот  скриншот  

скриншот  скриншот  скриншот  скриншот  

Общее
Полное имя : D:\13.Reasons.Why.S01E01.WEB-DLRip.RGzsRutracker.[Wentworth_Miller].avi
Формат : AVI
Формат/Информация : Audio Video Interleave
Размер файла : 1,10 Гбайт
Продолжительность : 54 м. 3 с.
Общий поток : 2910 Кбит/сек
Программа кодирования : VirtualDubMod 1.5.10.3 | www.virtualdub-fr.org || (build 2550/release)
Библиотека кодирования : VirtualDubMod build 2550/release

Видео
Идентификатор : 0
Формат : MPEG-4 Visual
Профиль формата : Advanced Simple@L5
Настройки формата : BVOP1
Параметр BVOP формата : 1
Параметр QPel формата : Нет
Параметр GMC формата : Без точки перехода
Параметр матрицы формата : Default (MPEG)
Идентификатор кодека : XVID
Идентификатор кодека/Подсказка : XviD
Продолжительность : 54 м. 3 с.
Битрейт : 2000 Кбит/сек
Ширина : 720 пикселей
Высота : 400 пикселей
Соотношение сторон : 16:9
Частота кадров : 23,976 (24000/1001) кадра/сек
Цветовое пространство : YUV
Субдискретизация насыщенности : 4:2:0
Битовая глубина : 8 бит
Тип развёртки : Прогрессивная
Метод сжатия : С потерями
Бит/(Пиксели*Кадры) : 0.290
Размер потока : 773 Мбайт (69%)
Библиотека кодирования : XviD 67

Аудио #1
Идентификатор : 1
Формат : AC-3
Формат/Информация : Audio Coding 3
Коммерческое название : Dolby Digital
Идентификатор кодека : 2000
Продолжительность : 54 м. 3 с.
Вид битрейта : Постоянный
Битрейт : 448 Кбит/сек
Каналы : 6 каналов
ChannelLayout : L R C LFE Ls Rs
Частота : 48,0 КГц
Частота кадров : 31,250 кадров/сек (1536 SPF)
Метод сжатия : С потерями
Размер потока : 173 Мбайт (15%)
Выравнивание : Разделение по промежуткам
Продолжительность промежутка : 42 мс. (1,00 видеокадр)
Время предзагрузки промежутка : 500 мс.
ServiceKind/String : Complete Main

Аудио #2
Идентификатор : 2
Формат : AC-3
Формат/Информация : Audio Coding 3
Коммерческое название : Dolby Digital
Идентификатор кодека : 2000
Продолжительность : 54 м. 3 с.
Вид битрейта : Постоянный
Битрейт : 448 Кбит/сек
Каналы : 6 каналов
ChannelLayout : L R C LFE Ls Rs
Частота : 48,0 КГц
Частота кадров : 31,250 кадров/сек (1536 SPF)
Метод сжатия : С потерями
Размер потока : 173 Мбайт (15%)
Выравнивание : Разделение по промежуткам
Продолжительность промежутка : 42 мс. (1,00 видеокадр)
Время предзагрузки промежутка : 500 мс.
ServiceKind/String : Complete Main

Общее
Полное имя : D:\13 Reasons Why\13 Reasons Why (Season 2) WEB-DLRip\13.Reasons.Why.S02E02.WEB-DLRip.RGzsRutracker.[Wentworth_Miller].avi
Формат : AVI
Формат/Информация : Audio Video Interleave
Размер файла : 1,22 Гбайт
Продолжительность : 59 м. 50 с.
Общий поток : 2909 Кбит/сек
Программа кодирования : VirtualDubMod 1.5.10.3 | www.virtualdub-fr.org || (build 2550/release)
Библиотека кодирования : VirtualDubMod build 2550/release

Видео
Идентификатор : 0
Формат : MPEG-4 Visual
Профиль формата : Advanced Simple@L5
Настройки формата : BVOP1
Параметр BVOP формата : 1
Параметр QPel формата : Нет
Параметр GMC формата : Без точки перехода
Параметр матрицы формата : Default (MPEG)
Идентификатор кодека : XVID
Идентификатор кодека/Подсказка : XviD
Продолжительность : 59 м. 50 с.
Битрейт : 1999 Кбит/сек
Ширина : 704 пикселя
Высота : 352 пикселя
Соотношение сторон : 2,000
Частота кадров : 23,976 (24000/1001) кадра/сек
Цветовое пространство : YUV
Субдискретизация насыщенности : 4:2:0
Битовая глубина : 8 бит
Тип развёртки : Прогрессивная
Метод сжатия : С потерями
Бит/(Пиксели*Кадры) : 0.336
Размер потока : 856 Мбайт (69%)
Библиотека кодирования : XviD 67

Аудио #1
Идентификатор : 1
Формат : AC-3
Формат/Информация : Audio Coding 3
Коммерческое название : Dolby Digital
Идентификатор кодека : 2000
Продолжительность : 59 м. 50 с.
Вид битрейта : Постоянный
Битрейт : 448 Кбит/сек
Каналы : 6 каналов
ChannelLayout : L R C LFE Ls Rs
Частота : 48,0 КГц
Частота кадров : 31,250 кадров/сек (1536 SPF)
Метод сжатия : С потерями
Размер потока : 192 Мбайт (15%)
Выравнивание : Разделение по промежуткам
Продолжительность промежутка : 42 мс. (1,00 видеокадр)
Время предзагрузки промежутка : 500 мс.
ServiceKind/String : Complete Main

Аудио #2
Идентификатор : 2
Формат : AC-3
Формат/Информация : Audio Coding 3
Коммерческое название : Dolby Digital
Идентификатор кодека : 2000
Продолжительность : 59 м. 50 с.
Вид битрейта : Постоянный
Битрейт : 448 Кбит/сек
Каналы : 6 каналов
ChannelLayout : L R C LFE Ls Rs
Частота : 48,0 КГц
Частота кадров : 31,250 кадров/сек (1536 SPF)
Метод сжатия : С потерями
Размер потока : 192 Мбайт (15%)
Выравнивание : Разделение по промежуткам
Продолжительность промежутка : 42 мс. (1,00 видеокадр)
Время предзагрузки промежутка : 500 мс.
ServiceKind/String : Complete Main

pb.wtf



Скачать 13 причин почему через торрент http://s020.radikal.ru/i712/1704/81/fc22187327a1.jpg Скачать фильм 13 причин почему через торрент бесплантно в хорошем качестве Описание: Однажды Клэй Дженсен находит на пороге своего дома коробку с аудиокассетами, записанными Ханной Бейкер. Он был влюблен в эту ... 10 10 4
Торрент: Зарегистрирован [2020-06-07 18:06] · скачан: 31 раз
Статус: √ проверено
Размер: 57.96 GB
Как cкачать? Как скачать 13 причин почему через торрент | UTorrent



Последний раз редактировалось: bober100 (2020-06-07 18:06), всего редактировалось 4 раз(а)

28-11-2019 20:33  

Отключить всю рекламу на сайте

    Дорогой пользователь! Огромная просьба, поблагодарите релизера, оцените раздачу и оставьте свои комментарий, если Вы скачали 13 причин почему через торрент бесплатно! Внесите свою лепту в развитие PiratBit!
    Комментировать посты могут только пользователи прошедшие не сложную регистрацию
    Показать сообщения:    

    13 причин почему через торрент
    Скачать бесплатно 13 причин почему
    13 причин почему скачать торрент
    13 причин почему смотреть онлайн
    Cкачать фильм 13 причин почему бесплатно
    13 причин почему скачать торрент в хорошем качестве
    13 причин почему смотреть онлайн бесплатно в хорошем качестве


    Вы не можете начинать темы
    Вы не можете отвечать на сообщения
    Вы не можете редактировать свои сообщения
    Вы не можете удалять свои сообщения
    Вы не можете голосовать в опросах
    Вы не можете прикреплять файлы к сообщениям
    Вы можете скачивать файлы