Ссылка на приватное зеркало нашего сайта всего за 1$. Внимание количество ограничено!!!

2 сезон

iTunes

1 сезон

1

iTunes

iTunes

iTunes

1 сезон

RePack

30

ИГРА 18+

pack

ВАЖНО

!!Акция!!

Alien_RageХит недели

RePack

MK11
pack

Забери бонус

RePack

jed

!!Акция!!

Alien_Rage

RePack

fifa19

RePack

Assassins Creed: Odyssey

RePack

NEED FOR SPEED™ PAYBACK

4 сезон

9 сезон

Бесстыжие 9 сезон

Все сериалы

все сериалы на PB.wtf

RePack

FAR CRY 5
  

Отель Купидон / Серии: 1-4 из 4 (Сергей Кравец) [2019, Мелодрама, WEB-DLRip] pb.wtf

Отель Купидон через торрент pb.wtf

Размер: 2.36 GB | Добавлен: 9 мес. назад | Торрент скачан:38 раз
Скачать  

21-01-2020 18:50 Отель Купидон Скачать торрент  

Отель Купидон Год выпуска: 2019
Страна: Украина
Жанр: Мелодрама
Продолжительность: 00:47:00
Перевод: Не требуется
Субтитры: отсутствуют

Режиссер: Сергей Кравец

В ролях: Галина Безрук, Алексей Нагрудный, Дарья Волга, Сергей Фролов (II), Александра Польгуй, Владимир Лилицкий, Олег Шульга, Михаил Варбанец, Сергей Кияшко, Рената Пимахова, Игорь Салимонов, Юрий Щербак (II), Ольга Герман, Анна Васильева (II), Вадим Голданов, Тамара Морозова, Сергей Сафрончик, Юрий Радионов, Геннадий Свитич, Антонина Макарчук, Дмитрий Гарбуз, Тамара Антропова, Александр Боднар, Ирина Литвиненко, Юлия Заремба, Сергей Воляновский

Описание: Представьте, что ваша жизнь идеальна. Как профессионально отретушированные фото. Вы – любимая жена и мама, у вас уютный дом, большая семья и даже успешный бизнес – семейный отель в горах зимнего курорта. Ваши близкие души в вас не чают, а вы доверяете им, как себе, и кажется, так будет всегда. Но в один день всё пошатнётся. В этот стабильный, выстроенный по кирпичикам мир ворвётся человек из прошлого. Перетрусит грязное белье и перевернёт всё с ног на голову. В каждом шкафу знакомого до последней замочной скважины отеля найдутся неудобные тайны. Муж предаст, сын назовёт мамой другую женщину, бизнес окажется мыльным пузырём, а родные – лицемерами и лгунами. Кто вообще все эти близкие чужие вам люди? Разве те, за кого себя выдают?

Качество: WEB-DLRip
Формат: AVI

Видео: XviD, ~ 1603 Кбит/с, 720x400, 25 кадр/с
Аудио: 48.0 kHz, AC3 Dolby Digital, 2/0 (L,R) ch, ~ 192 kbps
скриншот  скриншот  скриншот  скриншот  скриншот  

General
Complete name : C:01.Отель Купидон.(2019).WEB-DLRip.by.Nicodem.Files-x.avi
Format : AVI
Format/Info : Audio Video Interleave
File size : 604 MiB
Duration : 46mn 49s
Overall bit rate : 1 804 Kbps
Writing application : VirtualDubMod 1.5.10.3 | www.virtualdub-fr.org || (build 2550/release)
Writing library : VirtualDubMod build 2550/release

Video
ID : 0
Format : MPEG-4 Visual
Format profile : Advanced Simple@L5
Format settings, BVOP : 1
Format settings, QPel : No
Format settings, GMC : No warppoints
Format settings, Matrix : Custom
Codec ID : XVID
Codec ID/Hint : XviD
Duration : 46mn 49s
Bit rate : 1 603 Kbps
Width : 720 pixels
Height : 400 pixels
Display aspect ratio : 16:9
Frame rate : 25.000 fps
Color space : YUV
Chroma subsampling : 4:2:0
Bit depth : 8 bits
Scan type : Progressive
Compression mode : Lossy
Bits/(Pixel*Frame) : 0.223
Stream size : 537 MiB (89%)
Writing library : XviD 73

Audio
ID : 1
Format : AC-3
Format/Info : Audio Coding 3
Mode extension : CM (complete main)
Codec ID : 2000
Duration : 46mn 49s
Bit rate mode : Constant
Bit rate : 192 Kbps
Channel(s) : 2 channels
Channel positions : Front: L R
Sampling rate : 48.0 KHz
Bit depth : 16 bits
Compression mode : Lossy
Stream size : 64.3 MiB (11%)
Alignment : Split accross interleaves
Interleave, duration : 40 ms (1.00 video frame)
Interleave, preload duration : 500 ms

pb.wtf



Скачать Отель Купидон через торрент https://i111.fastpic.ru/big/2020/0121/b2/e1f1de6e3a3bb942deac30884996f8b2.jpg Скачать фильм Отель Купидон через торрент бесплантно в хорошем качестве Описание: Представьте, что ваша жизнь идеальна. Как профессионально отретушированные фото. Вы – любимая жена и мама, у вас уютный дом, ... 10 10 4
Торрент: Зарегистрирован [2020-01-21 18:50] · скачан: 38 раз
Статус: √ проверено
Размер: 2.36 GB
Как cкачать? Как скачать Отель Купидон через торрент | qTorrent

% Раздел Тема Автор DL S | L
Наши сериалы [ 6.83 GB ] Отель Купидон / Серии: 1-4 из 4 [2019 Мело WEB-DL 1080p] bober100 Скачать
1 | 0
Наши сериалы [ 4.84 GB ] Отель Купидон / Серии: 1-4 из 4 [2019 Мело WEB-DL 720p] bober100 Скачать
1 | 0

28-11-2019 20:33  

Отключить всю рекламу на сайте

    Дорогой пользователь! Огромная просьба, поблагодарите релизера, оцените раздачу и оставьте свои комментарий, если Вы скачали Отель Купидон через торрент бесплатно! Внесите свою лепту в развитие PiratBit!
    Комментировать посты могут только пользователи прошедшие не сложную регистрацию
    Показать сообщения:    

    Отель Купидон через торрент
    Скачать бесплатно Отель Купидон
    Отель Купидон скачать торрент
    Отель Купидон смотреть онлайн
    Cкачать фильм Отель Купидон бесплатно
    Отель Купидон скачать торрент в хорошем качестве
    Отель Купидон смотреть онлайн бесплатно в хорошем качестве


    Вы не можете начинать темы
    Вы не можете отвечать на сообщения
    Вы не можете редактировать свои сообщения
    Вы не можете удалять свои сообщения
    Вы не можете голосовать в опросах
    Вы не можете прикреплять файлы к сообщениям
    Вы можете скачивать файлы