>

7.4

iTunes

7.4

2 сезон

9.4

1 сезон

1

7.4

2 сезон

7.2

iTunes

6.0

MVO

13

6.1

iTunes

8.3

Пиратка

30

ULTIMATE

pack

9.9

Лицензия

ВАЖНО

ИГРА 18+

pack

7.3

RePack

MK11

7.7

RePack

jed

7.8

RePack

fifa19

8.5

RePack

RDR2

RePack

NEED FOR SPEED™ PAYBACK

1 сезон

9 сезон

Бесстыжие 9 сезон

Все сериалы

все сериалы на PB.wtf

RePack

FAR CRY 5

Anonymous, доброе утро, мы катастрофически не успеваем собрать деньги на оплату серверов, помогите нам пожалуйста 5,10,15р., для нас важна любая помощь . В качестве благодарности мы отключим Вам всю рекламу на сайте (укажите свой ник в строку Ваше имя)!

×
  
Magnet ссылка

Терминатор: Темные судьбы / Terminator: Dark Fate (Тим Миллер) [2019 г., фантастика, боевик, приключения, BDRip 1080p-HEVC 10bit, Авторский (одноголосый закадровый) Д.Есарев] pb.wtf

Смотреть онлайн Терминатор: Темные судьбы | Скачать    Ребята, помогите собрать деньги на оплату серверов!!!

22-01-2020 08:05 Терминатор: Темные судьбы Скачать торрент  

Терминатор: Темные судьбы / Terminator: Dark Fate
Год выпуска: 2019
Страна: США, Китай
Жанр: фантастика, боевик, приключения
Продолжительность: 02:08:06
Перевод:Дублированный iTunes, Авторский (одноголосый закадровый) Д.Есарев
Субтитры: нет

Режиссер: Тим Миллер



В ролях: Арнольд Шварценеггер, Маккензи Дэвис, Линда Хэмилтон, Эдвард Ферлонг, Гэбриел Луна, Наталия Рейес, Том Хоппер, Диего Бонета, Алисия Боррачеро, Энрике Арсе, Стивен Кри, Ферран Фернандес, Тристан Ульоа, Том Хоппер, Мануэль Пасифик, Фрайзер Джеймс, Карен Ганьон

Описание: Мексика. Милая девушка Даниэла Рамос, а для друзей просто Дани, вместе с братом приходит с утра работать на завод, но там выясняется, что их вскоре заменят автоматикой. И это не единственная угроза, которую представляют для девушки машины: тут же на неё нападает присланная из будущего и практически неубиваемая модель терминатора REV-9. Но на защиту Дани встает Грэйс — тоже прибывшая из будущего женщина, модифицировавшая свои боевые характеристики до терминаторского уровня. Вскоре к ним на помощь придёт и Сара Коннор, которая теперь превратилась в настоящую охотницу на роботов-убийц.

Качество: BDRip 1080p
Формат: MKV
Видео кодек: H.265
Аудио кодек: DTS, AC-3
Видео: HEVC/H.265, 1920x804, ~5501 Kbps
Аудио#1: Russian, DTS, 6ch, 48 kHz, 1509 kbps (Авторский, Есарев)
Аудио#2: Russian, AC-3, 6ch, 48 kHz, 384 kbps (Дублированный iTunes)
Релиз от: ADVOKAT69
скриншот  ,скриншот  ,скриншот  ,скриншот  ,

Общее
Уникальный идентификатор : 172444445106754896312705119847266744930 (0x81BB979113747892A85EF7A898497A62)
Полное имя : E:\Терминатор - Темные судьбы (2019) HEVC 10bit.mkv
Формат : Matroska
Версия формата : Version 4
Размер файла : 6,62 Гбайт
Продолжительность : 2 ч. 8 м.
Общий поток : 7396 Кбит/сек
Дата кодирования : UTC 2020-01-30 21:51:51
Программа кодирования : mkvmerge v9.2.0 ('Photograph') 64bit
Библиотека кодирования : libebml v1.3.3 + libmatroska v1.4.4

Видео
Идентификатор : 1
Формат : HEVC
Формат/Информация : High Efficiency Video Coding
Профиль формата : Main 10@L4@Main
Идентификатор кодека : V_MPEGH/ISO/HEVC
Продолжительность : 2 ч. 8 м.
Битрейт : 5501 Кбит/сек
Ширина : 1920 пикселей
Высота : 804 пикселя
Соотношение сторон : 2,40:1
Режим частоты кадров : Постоянный
Частота кадров : 23,976 (24000/1001) кадра/сек
Цветовое пространство : YUV
Субдискретизация насыщенности : 4:2:0
Битовая глубина : 10 бит
Бит/(Пиксели*Кадры) : 0.149
Размер потока : 4,92 Гбайт (74%)
Библиотека кодирования : x265 3.2+23-52135ffd9bcd:[Windows][GCC 9.2.0][64 bit] 10bit
Настройки программы : cpuid=1111039 / frame-threads=3 / numa-pools=8 / wpp / no-pmode / no-pme / no-psnr / no-ssim / log-level=2 / input-csp=1 / input-res=1920x804 / interlace=0 / total-frames=184272 / level-idc=0 / high-tier=1 / uhd-bd=0 / ref=4 / no-allow-non-conformance / no-repeat-headers / annexb / no-aud / no-hrd / info / hash=0 / no-temporal-layers / open-gop / min-keyint=23 / keyint=250 / gop-lookahead=0 / bframes=4 / b-adapt=2 / b-pyramid / bframe-bias=0 / rc-lookahead=25 / lookahead-slices=4 / scenecut=40 / hist-scenecut=0 / radl=0 / no-splice / no-intra-refresh / ctu=64 / min-cu-size=8 / rect / no-amp / max-tu-size=32 / tu-inter-depth=1 / tu-intra-depth=1 / limit-tu=0 / rdoq-level=2 / dynamic-rd=0.00 / no-ssim-rd / signhide / no-tskip / nr-intra=0 / nr-inter=0 / no-constrained-intra / strong-intra-smoothing / max-merge=3 / limit-refs=3 / limit-modes / me=3 / subme=3 / merange=57 / temporal-mvp / no-frame-dup / no-hme / weightp / no-weightb / no-analyze-src-pics / deblock=0:0 / no-sao / no-sao-non-deblock / rd=4 / selective-sao=0 / no-early-skip / rskip / no-fast-intra / no-tskip-fast / no-cu-lossless / no-b-intra / no-splitrd-skip / rdpenalty=0 / psy-rd=2.00 / psy-rdoq=1.00 / no-rd-refine / no-lossless / cbqpoffs=0 / crqpoffs=0 / rc=abr / bitrate=5500 / qcomp=0.60 / qpstep=4 / stats-write=0 / stats-read=2 / cplxblur=20.0 / qblur=0.5 / ipratio=1.40 / pbratio=1.30 / aq-mode=3 / aq-strength=1.00 / cutree / zone-count=0 / no-strict-cbr / qg-size=32 / no-rc-grain / qpmax=69 / qpmin=0 / no-const-vbv / sar=0 / overscan=0 / videoformat=5 / range=0 / colorprim=2 / transfer=2 / colormatrix=2 / chromaloc=0 / display-window=0 / cll=0,0 / min-luma=0 / max-luma=1023 / log2-max-poc-lsb=8 / vui-timing-info / vui-hrd-info / slices=1 / no-opt-qp-pps / no-opt-ref-list-length-pps / multi-pass-opt-rps / scenecut-bias=0.05 / hist-threshold=0.01 / no-opt-cu-delta-qp / aq-motion / no-hdr / no-hdr-opt / no-dhdr10-opt / no-idr-recovery-sei / analysis-reuse-level=5 / scale-factor=0 / refine-intra=0 / refine-inter=0 / refine-mv=1 / refine-ctu-distortion=0 / no-limit-sao / ctu-info=0 / no-lowpass-dct / refine-analysis-type=0 / copy-pic=1 / max-ausize-factor=1.0 / no-dynamic-refine / no-single-sei / no-hevc-aq / no-svt / no-field / qp-adaptation-range=1.00 / no-scenecut-aware-qp
Default : Да
Forced : Нет

Аудио #1
Идентификатор : 2
Формат : AC-3
Формат/Информация : Audio Coding 3
Коммерческое название : Dolby Digital
Идентификатор кодека : A_AC3
Продолжительность : 2 ч. 8 м.
Вид битрейта : Постоянный
Битрейт : 384 Кбит/сек
Каналы : 6 каналов
ChannelLayout : L R C LFE Ls Rs
Частота : 48,0 КГц
Частота кадров : 31,250 кадров/сек (1536 SPF)
Метод сжатия : С потерями
Размер потока : 352 Мбайт (5%)
Заголовок : Дублированный | iTunes
ServiceKind/String : Complete Main
Default : Да
Forced : Нет

Аудио #2
Идентификатор : 3
Формат : DTS
Формат/Информация : Digital Theater Systems
Идентификатор кодека : A_DTS
Продолжительность : 2 ч. 8 м.
Вид битрейта : Постоянный
Битрейт : 1509 Кбит/сек
Каналы : 6 каналов
ChannelLayout : C L R Ls Rs LFE
Частота : 48,0 КГц
Частота кадров : 93,750 кадра/сек (512 SPF)
Битовая глубина : 24 бит
Метод сжатия : С потерями
Размер потока : 1,35 Гбайт (20%)
Заголовок : Есарев
Default : Нет
Forced : Нет

Текст
Идентификатор : 4
Формат : UTF-8
Идентификатор кодека : S_TEXT/UTF8
Идентификатор кодека/Информация : UTF-8 Plain Text
Продолжительность : 2 ч. 4 м.
Битрейт : 4 бит/сек
ElementCount : 143
Размер потока : 4,36 Кбайт (0%)
Заголовок : Русские форсированые
Default : Да
Forced : Нет

Меню
00:00:00.000 : en:Chapter 01
00:04:19.842 : en:Chapter 02
00:07:48.926 : en:Chapter 03
00:11:47.915 : en:Chapter 04
00:16:56.348 : en:Chapter 05
00:22:10.662 : en:Chapter 06
00:29:00.613 : en:Chapter 07
00:33:25.753 : en:Chapter 08
00:41:35.493 : en:Chapter 09
00:47:02.694 : en:Chapter 10
00:53:08.935 : en:Chapter 11
00:57:56.806 : en:Chapter 12
01:05:02.690 : en:Chapter 13
01:13:07.966 : en:Chapter 14
01:20:46.258 : en:Chapter 15
01:27:29.744 : en:Chapter 16
01:32:48.688 : en:Chapter 17
01:41:45.557 : en:Chapter 18
01:49:35.318 : en:Chapter 19
01:57:58.488 : en:Chapter 20

pb.wtf





Последний раз редактировалось: ADVOKAT69 (2020-01-30 22:00), всего редактировалось 3 раз(а)

28-11-2019 20:33  

Отключить всю рекламу на сайте

22-01-2020 09:14 Терминатор: Темные судьбы Скачать торрент  

    Дорогой пользователь! Огромная просьба, поблагодарите релизера, оцените раздачу и оставьте свои комментарий, если Вы скачали Терминатор: Темные судьбы через торрент бесплатно!
    Комментировать посты могут только пользователи прошедшие не сложную регистрацию
    Показать сообщения:    

    Терминатор: Темные судьбы через торрент
    Скачать бесплатно Терминатор: Темные судьбы
    Терминатор: Темные судьбы скачать торрент
    Терминатор: Темные судьбы смотреть онлайн
    Cкачать фильм Терминатор: Темные судьбы бесплатно
    Терминатор: Темные судьбы скачать торрент в хорошем качестве
    Терминатор: Темные судьбы смотреть онлайн бесплатно в хорошем качестве


    Вы не можете начинать темы
    Вы не можете отвечать на сообщения
    Вы не можете редактировать свои сообщения
    Вы не можете удалять свои сообщения
    Вы не можете голосовать в опросах
    Вы не можете прикреплять файлы к сообщениям
    Вы можете скачивать файлы