2 сезон

iTunes

MVO

1

2 сезон

iTunes

iTunes

1 сезон

RePack

30

Ultimate

ВАЖНО

ИГРА 18+

pack

RePack

MK11
pack

Легкие деньги

RePack

jed

RePack

fifa19

RePack

RDR2

RePack

NEED FOR SPEED™ PAYBACK

4 сезон

9 сезон

Бесстыжие 9 сезон

Все сериалы

все сериалы на PB.wtf

RePack

FAR CRY 5

Anonymous, доброй ночи, мы не успеваем собрать деньги на оплату серверов за декабрь и январь, помогите нам пожалуйста в это трудное время. В качестве благодарности мы отключим Вам всю рекламу на сайте (укажите свой ник в строку Ваше имя)!

×
  
Magnet ссылка

Обитель зла: Последняя глава / Resident Evil: The Final Chapter (Пол У. С. Андерсон) [2016, Ужасы, фантастика, боевик, триллер, BDRip-HEVC 1080p, (10 bit)] DUB [Лицензия] pb.wtf

Обитель зла: Последняя глава через торрент pb.wtf

Размер: 5.55 GB | Добавлен: 11 мес. назад | Торрент скачан:228 раз
Скачать  

22-01-2020 09:53 Обитель зла: Последняя глава Скачать торрент  

Обитель зла: Последняя глава | Resident Evil: The Final Chapter
Год выпуска: 2016
Страна: Франция, Германия, Канада, Австралия
Жанр: Ужасы, фантастика, боевик, триллер
Продолжительность: 01:46:33
Перевод: Дублированный | Лицензия
Субтитры: русские, английские

Режиссер: Пол У. С. Андерсон

rating

В ролях:

Милла Йовович (Alice / Alicia Marcus), Иэн Глен (Dr. Isaacs), Эли Лартер (Claire Redfield), Шон Робертс (Wesker), Оуэн Мэкен (Doc), Фрайзер Джеймс (Razor), Руби Роуз (Abigail), Уильям Леви (Christian), Рола (Cobalt), Эвер Андерсон (Young Alicia / Red Queen), Марк Симпсон (James Marcus), Милтон Шорр (Thin Man)
Описание: На обломках цитадели демократии Элис вместе с группой выживших дает решающий бой остаткам недобитых буржуев из корпорации "Амбрелла". Преодолевая сопротивление орд чумных мертвецов и разумных крыс-мутантов со светящимися глазами и страдая от полного отсутствия горячего душа, они должны вернуться к источнику местной заразы - городу Раккун-Сити. Там их поджидают отборные участники цирка уродцев и таймер, отсчитывающий последние часы существования человечества.

Качество: BDRip-HEVC 1080p
Формат: MKV

Видео: 1920x800, 23,976 fps, HEVC, ~5304 kbps, 10bit
Аудио#1: Rus, 48 kHz/16-bit, AC3 5.1, ~640 kbps | Дубляж
Аудио#2: Eng, 48 kHz/16-bit, DTS 5.1, ~1509 kbps | Оригинал
скриншот  скриншот  скриншот  скриншот  скриншот  

Общее
Уникальный идентификатор : 222893979020189054082532799582171223298 (0xA7AFD1A0EE4DAE5ABD19B874F892D502)
Полное имя : E:HEVCResident Evil The Final Chapter (2016)Resident.Evil.The.Final.Chapter.2016.1080p_HEVCCLUB.mkv
Формат : Matroska
Версия формата : Version 4 / Version 2
Размер файла : 5,55 Гбайт
Продолжительность : 1 ч. 46 м.
Общий поток : 7456 Кбит/сек
Название фильма : Resident Evil: The Final Chapter (2016) - HEVC.CLUB
Дата кодирования : UTC 2017-05-03 16:13:02
Программа кодирования : mkvmerge v10.0.0 ('To Drown In You') 64bit
Библиотека кодирования : libebml v1.3.4 + libmatroska v1.4.5
Обложка : Yes
Attachments : cover.jpg

Видео
Идентификатор : 1
Формат : HEVC
Формат/Информация : High Efficiency Video Coding
Идентификатор кодека : V_MPEGH/ISO/HEVC
Продолжительность : 1 ч. 46 м.
Битрейт : 5304 Кбит/сек
Ширина : 1920 пикселей
Высота : 800 пикселей
Соотношение сторон : 2,40:1
Режим частоты кадров : Постоянный
Частота кадров : 23,976 (24000/1001) кадра/сек
Бит/(Пиксели*Кадры) : 0.144
Размер потока : 3,95 Гбайт (71%)
Заголовок : HEVC.CLUB
Default : Да
Forced : Да

Аудио #1
Идентификатор : 2
Формат : AC-3
Формат/Информация : Audio Coding 3
Расширение режима : CM (complete main)
Параметр Endianness формата : Big
Идентификатор кодека : A_AC3
Продолжительность : 1 ч. 46 м.
Вид битрейта : Постоянный
Битрейт : 640 Кбит/сек
Каналы : 6 каналов
Расположение каналов : Front: L C R, Side: L R, LFE
Частота : 48,0 КГц
Частота кадров : 31,250 кадров/сек (1536 spf)
Битовая глубина : 16 бит
Метод сжатия : С потерями
Размер потока : 488 Мбайт (9%)
Заголовок : Dub [licence]
Язык : Russian
Default : Да
Forced : Нет

Аудио #2
Идентификатор : 3
Формат : DTS
Формат/Информация : Digital Theater Systems
Режим : 16
Параметр Endianness формата : Big
Идентификатор кодека : A_DTS
Продолжительность : 1 ч. 46 м.
Вид битрейта : Постоянный
Битрейт : 1509 Кбит/сек
Каналы : 6 каналов
Расположение каналов : Front: L C R, Side: L R, LFE
Частота : 48,0 КГц
Частота кадров : 93,750 кадра/сек (512 spf)
Битовая глубина : 16 бит
Метод сжатия : С потерями
Размер потока : 1,12 Гбайт (20%)
Заголовок : Original
Язык : English
Default : Нет
Forced : Нет

Текст #1
Идентификатор : 4
Формат : UTF-8
Идентификатор кодека : S_TEXT/UTF8
Идентификатор кодека/Информация : UTF-8 Plain Text
Продолжительность : 1 ч. 45 м.
Битрейт : 41 бит/сек
Count of elements : 846
Размер потока : 31,7 Кбайт (0%)
Заголовок : Full
Язык : Russian
Default : Нет
Forced : Нет

Текст #2
Идентификатор : 5
Формат : UTF-8
Идентификатор кодека : S_TEXT/UTF8
Идентификатор кодека/Информация : UTF-8 Plain Text
Продолжительность : 1 ч. 45 м.
Битрейт : 29 бит/сек
Count of elements : 806
Размер потока : 22,7 Кбайт (0%)
Заголовок : Full
Язык : English
Default : Нет
Forced : Нет

Меню
00:00:00.000 : en:Chapter 01
00:05:39.672 : en:Chapter 02
00:11:18.177 : en:Chapter 03
00:17:00.102 : en:Chapter 04
00:22:36.146 : en:Chapter 05
00:27:21.931 : en:Chapter 06
00:33:35.888 : en:Chapter 07
00:40:43.816 : en:Chapter 08
00:46:29.328 : en:Chapter 09
00:53:11.980 : en:Chapter 10
01:03:11.871 : en:Chapter 11
01:10:41.070 : en:Chapter 12
01:15:30.776 : en:Chapter 13
01:22:51.007 : en:Chapter 14
01:28:26.092 : en:Chapter 15
01:35:00.653 : en:Chapter 16

pb.wtf



Скачать Обитель зла: Последняя глава через торрент http://s8.hostingkartinok.com/uploads/images/2017/05/1d822bdb418559d40741b334862ff34d.jpg Скачать фильм Обитель зла: Последняя глава через торрент бесплантно в хорошем качестве Описание: На обломках цитадели демократии Элис вместе с группой выживших дает решающий бой остаткам недобитых буржуев из корпорации ... 10 10 10
Торрент: Зарегистрирован [2020-01-22 09:53] · скачан: 228 раз
Статус: √ проверено
Размер: 5.55 GB
Как cкачать? Как скачать Обитель зла: Последняя глава через торрент | UTorrent

% Раздел Тема Автор DL S | L
3D Фильмы [ 9.6 GB ] Обитель зла: Последняя глава 3Д / Resident Evil: The Final Chapter 3D [2016 BDRip 1080p] [Half OverUnder / Вертикальная анаморфная стереопара] DUB [] bober100 Скачать
1 | 0
Ultra HD (UHD: 2K, 4K, 8K) — видео сверхвысокой чёткости [ 43.36 GB ] Обитель зла: Последняя глава / Resident Evil: The Final Chapter [2016 UHD BDRemux 2160p] DUB [] bober100 Скачать
1 | 0
Фильмы [HD 720p, 1080p] (Хороший звук DUB, MVO) [ 3.93 GB ] Обитель зла: Последняя глава / Resident Evil: The Final Chapter [2016 BDRip 720p] DUB [] bober100 Скачать
2 | 0
Фильмы (Blu-ray, BD-Remux, HDDVD) [ 17.53 GB ] Обитель зла: Последняя глава / Resident Evil: The Final Chapter [2016 BD Remux 1080p] DUB [] bober100 Скачать
1 | 0
Фильмы 2016 [DVDrip, WEB-DLRip, HDrip] (DUB, MVO) [ 746 MB ] Обитель зла: Последняя глава / Resident Evil: The Final Chapter [2016 BDRip] bober100 Скачать
1 | 0


Последний раз редактировалось: bober100 (2020-01-22 11:13), всего редактировалось 1 раз

28-11-2019 20:33  

Отключить всю рекламу на сайте

22-01-2020 10:01 Обитель зла: Последняя глава Скачать торрент  

Помню как ждал финала, посмотрел, разочаровался, а уже прошло 4 года после выхода фильма...pb.wtf



22-01-2020 11:09 Обитель зла: Последняя глава Скачать торрент  

Купили новый телик пересматриваем теперь всё в этом формате !!! Большое спасибо pb.wtf



22-01-2020 11:31 Обитель зла: Последняя глава Скачать торрент  

FightNight писал(а):

теперь всё в этом формате !!!

Там разницу под лупой нужно искать.pb.wtf



23-01-2020 12:11 Обитель зла: Последняя глава Скачать торрент  

FightNight писал(а):

Купили новый телик пересматриваем теперь всё в этом формате !!! Большое спасибо

Для новых теликов 1920*1080 качество уже ничто, там 4К, есть 8К. Или если любой другой 32 дюйма для вас после лампового "новый", то понятноpb.wtf



23-01-2020 15:44 Обитель зла: Последняя глава Скачать торрент  

Slavjan84 писал(а):

FightNight писал(а):

Купили новый телик пересматриваем теперь всё в этом формате !!! Большое спасибо

Для новых теликов 1920*1080 качество уже ничто, там 4К, есть 8К. Или если любой другой 32 дюйма для вас после лампового "новый", то понятно

8к серьезно? вы их цены видели?) и где контент под 8к? его просто нет) Только недавно 4к пошел в массы, а 8к контент будет как минимум года через 3, и то его сначала будет очень малоpb.wtf



    Дорогой пользователь! Огромная просьба, поблагодарите релизера, оцените раздачу и оставьте свои комментарий, если Вы скачали Обитель зла: Последняя глава через торрент бесплатно! Внесите свою лепту в развитие PiratBit!
    Комментировать посты могут только пользователи прошедшие не сложную регистрацию
    Показать сообщения:    

    Обитель зла: Последняя глава через торрент
    Скачать бесплатно Обитель зла: Последняя глава
    Обитель зла: Последняя глава скачать торрент
    Обитель зла: Последняя глава смотреть онлайн
    Cкачать фильм Обитель зла: Последняя глава бесплатно
    Обитель зла: Последняя глава скачать торрент в хорошем качестве
    Обитель зла: Последняя глава смотреть онлайн бесплатно в хорошем качестве


    Вы не можете начинать темы
    Вы не можете отвечать на сообщения
    Вы не можете редактировать свои сообщения
    Вы не можете удалять свои сообщения
    Вы не можете голосовать в опросах
    Вы не можете прикреплять файлы к сообщениям
    Вы можете скачивать файлы