Ссылка на приватное зеркало нашего сайта всего за 1$. Внимание количество ограничено!!!

2 сезон

iTunes

1 сезон

1

iTunes

iTunes

iTunes

1 сезон

RePack

30

ИГРА 18+

pack

ВАЖНО

!!Акция!!

Alien_RageХит недели

RePack

MK11
pack

Забери бонус

RePack

jed

!!Акция!!

Alien_Rage

RePack

fifa19

RePack

Assassins Creed: Odyssey

RePack

NEED FOR SPEED™ PAYBACK

4 сезон

9 сезон

Бесстыжие 9 сезон

Все сериалы

все сериалы на PB.wtf

RePack

FAR CRY 5
  

Когда песня не кончается (Роман Тихомиров) [1964, СССР, мюзикл, VHSRip от AVP Studio] pb.wtf

Когда песня не кончается через торрент pb.wtf

Размер: 1.08 GB | Добавлен: 8 мес. назад | Торрент скачан:9 раз
Скачать  

24-01-2020 11:01 Когда песня не кончается Скачать торрент  

Когда песня не кончается
Страна: СССР
Производство: Ленфильм, Второе Т/О

Жанр: мюзикл
Год выпуска: 1964
Продолжительность: 01:22:35

Перевод: Не требуется
Cубтитры: нет
Оригинальная аудиодорожка: русский

Режиссер: Роман Тихомиров

В ролях:
Галина Сполуденная, Дальвин Щербаков, Эммануил Мигиров, Владимир Хворостов, Людмила Зыкина, Георг Отс, Галина Ковалёва, Наталья Макарова, Муслим Магомаев, Тамара Милашкина, Аркадий Райкин, Эдита Пьеха, Марина Петрова (III), Степан Разумов, Виталий Копылов, Владимир Матусов, Анатолий Шалаев, Николай Крылов, Василий Соловьев-Седой, Олег Лундстрем, Анатолий Бадхен, В. Федотов, Ниязи Ниязи, Б. Федюкин...
Об актёрах подробней

Описание:
Действие фильма происходит во время фестиваля «Ленинградское лето», участники которого — известные деятели искусства, молодые артисты оперы, балета, эстрады, цирка, а также коллективы художественной самодеятельности. Этот фестиваль спешат запечатлеть вездесущие хроникеры Костя и Вася. Сюда же приезжает и молодая певица Светлана. До конца праздничного события девушку преследует безнадежно застенчивый лейтенант милиции. Неожиданная любовь лишает его бытовой речи и наделяет прекрасным тенором.

Исходник: VHS
Качество видео: VHSRip
Формат видео: AVI

Видео: 704x528 (4:3), 25,000 кадров/сек, XviD ~ 1662 kbps avg, 0.179 bit/pixel
Аудио: 48 kHz, Dolby Digital AC3 2.0, 192 kbps

Раздача от:
Общее
Полное имя : Kogda.pesnya.ne.konchaetsya.1964.VHSRip_[New-team]_by_AVP_Studio.avi
Формат : AVI
Формат/Информация : Audio Video Interleave
Профиль формата : OpenDML
Размер файла : 1,08 Гбайт
Продолжительность : 1 ч. 22 м.
Общий поток : 1868 Кбит/сек
Программа кодирования : Lavf58.20.100

Видео
Идентификатор : 0
Формат : MPEG-4 Visual
Профиль формата : Advanced Simple@L5
Настройки формата : BVOP3
Параметр BVOP формата : 3
Параметр QPel формата : Нет
Параметр GMC формата : Без точки перехода
Параметр матрицы формата : Default (MPEG)
Идентификатор кодека : XVID
Идентификатор кодека/Подсказка : XviD
Продолжительность : 1 ч. 22 м.
Битрейт : 1662 Кбит/сек
Ширина : 704 пикселя
Высота : 528 пикселей
Соотношение сторон : 4:3
Частота кадров : 25,000 кадров/сек
Цветовое пространство : YUV
Субдискретизация насыщенности : 4:2:0
Битовая глубина : 8 бит
Тип развёртки : Прогрессивная
Метод сжатия : С потерями
Бит/(Пиксели*Кадры) : 0.179
Размер потока : 982 Мбайт (89%)

Аудио
Идентификатор : 1
Формат : AC-3
Формат/Информация : Audio Coding 3
Коммерческое название : Dolby Digital
Идентификатор кодека : 2000
Продолжительность : 1 ч. 22 м.
Вид битрейта : Постоянный
Битрейт : 192 Кбит/сек
Каналы : 2 канала
ChannelLayout : L R
Частота : 48,0 КГц
Частота кадров : 31,250 кадров/сек (1536 SPF)
Битовая глубина : 16 бит
Метод сжатия : С потерями
Размер потока : 113 Мбайт (10%)
Выравнивание : Соединение по промежуткам
Продолжительность промежутка : 32 мс
pb.wtf



Скачать Когда песня не кончается через торрент http://b.radikal.ru/b23/2001/a4/4a4bbebe50e8.png Скачать фильм Когда песня не кончается через торрент бесплантно в хорошем качестве Описание:Действие фильма происходит во время фестиваля «Ленинградское лето», участники которого — известные деятели искусства, молодые ... 10 10 1
Торрент: Зарегистрирован [2020-01-24 11:01] · скачан: 9 раз
Статус: √ проверено
Размер: 1.08 GB
Как cкачать? Как скачать Когда песня не кончается через торрент | qTorrent

% Раздел Тема Автор DL S | L
Кино СССР [ 1.09 GB ] Когда песня не кончается [1964 СССР мюзикл VHSRip-AVC от AVP Studio] AVP Studio Скачать
2 | 0

28-11-2019 20:33  

Отключить всю рекламу на сайте

    Дорогой пользователь! Огромная просьба, поблагодарите релизера, оцените раздачу и оставьте свои комментарий, если Вы скачали Когда песня не кончается через торрент бесплатно! Внесите свою лепту в развитие PiratBit!
    Комментировать посты могут только пользователи прошедшие не сложную регистрацию
    Показать сообщения:    

    Когда песня не кончается через торрент
    Скачать бесплатно Когда песня не кончается
    Когда песня не кончается скачать торрент
    Когда песня не кончается смотреть онлайн
    Cкачать фильм Когда песня не кончается бесплатно
    Когда песня не кончается скачать торрент в хорошем качестве
    Когда песня не кончается смотреть онлайн бесплатно в хорошем качестве


    Вы не можете начинать темы
    Вы не можете отвечать на сообщения
    Вы не можете редактировать свои сообщения
    Вы не можете удалять свои сообщения
    Вы не можете голосовать в опросах
    Вы не можете прикреплять файлы к сообщениям
    Вы можете скачивать файлы