Всегда рабочее зеркало без VPN и Proxy просто перед .vidak.icu напиши любое слово или цифру, Пример http://zsfy.vidak.icu

MVO

2 сезон

2 сезон

1

1 сезон

iTunes

2 сезон

13

1 сезон

Распродажа

pack

Рекомендуем

Пиратка

30

ВАЖНО

RePack

MK11

RePack

jed

RePack

fifa19

RePack

RDR2

RePack

NEED FOR SPEED™ PAYBACK

Кинопоиск HD

6 сезон

 Острые козырьки 6 сезон

Все сериалы

все сериалы на PB.wtf

RePack

FAR CRY 5

Anonymous, нам критически не хватает 5601 руб. на оплату серверов и переферии за Апрель, помоги нам пожалуйста, вся надежда только на тебя. В благодарность мы отключим тебе всю рекламу на сайте!

×
  
Magnet ссылка

Когда песня не кончается (Роман Тихомиров) [1964, СССР, мюзикл, VHSRip-AVC от AVP Studio] pb.wtf

Когда песня не кончается через торрент pb.wtf

Размер: 1.09 GB | Добавлен: 2 года 3 мес. назад | Торрент скачан:36 раз
Смотреть онлайн Когда песня не кончается | Скачать    Ребята, помогите собрать деньги на оплату серверов!!!

24-01-2020 11:03 Когда песня не кончается Скачать торрент  

Когда песня не кончается
Страна: СССР
Производство: Ленфильм, Второе Т/О

Жанр: мюзикл
Год выпуска: 1964
Продолжительность: 01:22:35

Перевод: Не требуется
Cубтитры: нет
Оригинальная аудиодорожка: русский

Режиссер: Роман Тихомиров

В ролях:
Галина Сполуденная, Дальвин Щербаков, Эммануил Мигиров, Владимир Хворостов, Людмила Зыкина, Георг Отс, Галина Ковалёва, Наталья Макарова, Муслим Магомаев, Тамара Милашкина, Аркадий Райкин, Эдита Пьеха, Марина Петрова (III), Степан Разумов, Виталий Копылов, Владимир Матусов, Анатолий Шалаев, Николай Крылов, Василий Соловьев-Седой, Олег Лундстрем, Анатолий Бадхен, В. Федотов, Ниязи Ниязи, Б. Федюкин...
Об актёрах подробней

Описание:
Действие фильма происходит во время фестиваля «Ленинградское лето», участники которого — известные деятели искусства, молодые артисты оперы, балета, эстрады, цирка, а также коллективы художественной самодеятельности. Этот фестиваль спешат запечатлеть вездесущие хроникеры Костя и Вася. Сюда же приезжает и молодая певица Светлана. До конца праздничного события девушку преследует безнадежно застенчивый лейтенант милиции. Неожиданная любовь лишает его бытовой речи и наделяет прекрасным тенором.

Исходник: VHS
Качество видео: VHSRip-AVC
Формат видео: MKV

Видео: 704->760x570 (4:3), 25,000 кадров/сек, H264 ~ 1694 kbps avg, 0.169 bit/pixel
Аудио: 48 kHz, Dolby Digital AC3 2.0, 192 kbps

Раздача от:
Общее
Полное имя : Kogda.pesnya.ne.konchaetsya.1964.VHSRip-AVC_[New-team]_by_AVP_Studio.mkv
Формат : Matroska
Версия формата : Version 4
Размер файла : 1,09 Гбайт
Продолжительность : 1 ч. 22 м.
Общий поток : 1889 Кбит/сек
Программа кодирования : XviD4PSP 8.0.59
Библиотека кодирования : Lavf58.20.100

Видео
Идентификатор : 1
Формат : AVC
Формат/Информация : Advanced Video Codec
Профиль формата : High@L3.1
Настройки формата : CABAC / 10 Ref Frames
Параметр CABAC формата : Да
Параметр RefFrames формата : 10 кадров
Идентификатор кодека : V_MPEG4/ISO/AVC
Продолжительность : 1 ч. 22 м.
Битрейт : 1694 Кбит/сек
Ширина : 704 пикселя
Высота : 570 пикселей
Соотношение сторон : 4:3
Режим частоты кадров : Постоянный
Частота кадров : 25,000 кадров/сек
Цветовое пространство : YUV
Субдискретизация насыщенности : 4:2:0
Битовая глубина : 8 бит
Тип развёртки : Прогрессивная
Бит/(Пиксели*Кадры) : 0.169
Размер потока : 980 Мбайт (88%)
Библиотека кодирования : x264 core 157 r2969 d4099dd
Настройки программы : cabac=1 / ref=10 / deblock=1:-2:-1 / analyse=0x3:0x133 / me=umh / subme=10 / psy=1 / psy_rd=1.00:0.00 / mixed_ref=1 / me_range=16 / chroma_me=1 / trellis=2 / 8x8dct=1 / cqm=0 / deadzone=21,11 / fast_pskip=0 / chroma_qp_offset=-2 / threads=8 / lookahead_threads=1 / sliced_threads=0 / nr=1 / decimate=1 / interlaced=0 / bluray_compat=0 / constrained_intra=0 / bframes=8 / b_pyramid=2 / b_adapt=2 / b_bias=8 / direct=3 / weightb=1 / open_gop=0 / weightp=2 / keyint=250 / keyint_min=25 / scenecut=40 / intra_refresh=0 / rc_lookahead=60 / rc=2pass / mbtree=1 / bitrate=1694 / ratetol=1.0 / qcomp=0.70 / qpmin=3 / qpmax=69 / qpstep=4 / cplxblur=20.0 / qblur=0.5 / ip_ratio=1.40 / aq=2:1.00
Язык : Russian
Default : Да
Forced : Нет
ENCODING_INFO : MPEG4 > X264 VBR-2P 1694kbps AVC для DVDRip

Аудио
Идентификатор : 2
Формат : AC-3
Формат/Информация : Audio Coding 3
Коммерческое название : Dolby Digital
Идентификатор кодека : A_AC3
Продолжительность : 1 ч. 22 м.
Вид битрейта : Постоянный
Битрейт : 192 Кбит/сек
Каналы : 2 канала
ChannelLayout : L R
Частота : 48,0 КГц
Частота кадров : 31,250 кадров/сек (1536 SPF)
Битовая глубина : 16 бит
Метод сжатия : С потерями
Размер потока : 113 Мбайт (10%)
Язык : Russian
Default : Да
Forced : Нет
pb.wtf



Скачать Когда песня не кончается через торрент http://b.radikal.ru/b23/2001/a4/4a4bbebe50e8.png Скачать, смотреть онлайн Когда песня не кончается бесплантно в хорошем качестве Описание:Действие фильма происходит во время фестиваля «Ленинградское лето», участники которого — известные деятели искусства, молодые ... 5 10 1
Торрент: Зарегистрирован [2020-01-24 11:03] · скачан: 36 раз
Статус: √ проверено
Размер: 1.09 GB
Как cкачать? Как скачать Когда песня не кончается через торрент | UTorrent

% Раздел Тема Автор DL S | L
Кино СССР [ 1.08 GB ] Когда песня не кончается [1964 СССР мюзикл VHSRip от AVP Studio] AVP Studio Скачать
1 | 0

28-11-2019 20:33  

Отключить всю рекламу на сайте

    Дорогой пользователь! Огромная просьба, поблагодарите релизера, оцените раздачу и оставьте свои комментарий, если Вы скачали Когда песня не кончается через торрент бесплатно!
    Комментировать посты могут только пользователи прошедшие не сложную регистрацию
    Показать сообщения:    

    Когда песня не кончается через торрент
    Скачать бесплатно Когда песня не кончается
    Когда песня не кончается скачать торрент
    Когда песня не кончается смотреть онлайн
    Cкачать фильм Когда песня не кончается бесплатно
    Когда песня не кончается скачать торрент в хорошем качестве
    Когда песня не кончается смотреть онлайн бесплатно в хорошем качестве


    Вы не можете начинать темы
    Вы не можете отвечать на сообщения
    Вы не можете редактировать свои сообщения
    Вы не можете удалять свои сообщения
    Вы не можете голосовать в опросах
    Вы не можете прикреплять файлы к сообщениям
    Вы можете скачивать файлы