MEGA NEWS Получи личный уникальный адрес сайта и защити себя от блокировок. Внимание количество ограничено!!!

iTunes

1+1

iTunes

мы

iTunes

1

iTunes

Чернобыль

iTunes

Ральф против интернета

Лицензия

ПШазам

Лицензия

Игра престолов

Лицензия

30
pack

ВАЖНО

!!Акция!!

Alien_RageХит недели

RePack

Resident Evil 21

ИГРА 18+

pack

RePack

Metro:Exodus

!!Акция!!

Alien_Rage

RePack

fifa19

RePack

Assassins Creed: Odyssey

RePack

NEED FOR SPEED™ PAYBACK

3 сезон

9 сезон

Бесстыжие 9 сезон

Все сериалы

все сериалы на PB.wtf

RePack

FAR CRY 5
Ребята, катастрофически не хватает 1900р. для оплаты серверов за АВГУСТ (всвязи с блокировками трафик упал в 3 раза), 1-2р., выручайте.
  

Ярослав. Тысячу лет назад (Дмитрий Коробкин) [2010 г., приключения, история, BDRip (1080p)] pb.wtf

Ярослав. Тысячу лет назад через торрент pb.wtf

Размер: 7.69 GB | Добавлен: 8 лет 8 мес. назад | Торрент скачан:141 раз
Скачать  

26-01-2011 13:37 Ярослав. Тысячу лет назад Скачать торрент  

Ярослав. Тысячу лет назад


Год выпуска: 2010
Страна: Россия
Жанр: приключения, история
Продолжительность: 01:43:27
Перевод: Не требуется

Режиссер: Дмитрий Коробкин
Продюссер: Вадим Быркин, Сурков Олег
Сценарий: Марина Кошкина, Наталья Назарова

Бюджет: $5 000 000
Премьера в мире: 14 октября 2010




В ролях: Александр Ивашкевич, Алексей Кравченко, Светлана Чуйкина, Валерий Золотухин, Виктор Вержбицкий, Елена Плаксина, Борис Токарев, Владимир Антоник, Юрий Ваксман, Павел Хрул


Описание: Киевская Русь, начало второго тысячелетия. Ростовские земли полыхают от межплеменных войн. В лесах, по дорогам и рекам хозяйничают разбойничьи ватаги. Разбойники продают людей Хазарам, которые сплавляют рабов в низовья Волги для перепродажи.Чтобы остановить работорговлю молодому Князю Ярославу предстоит объединить земли и народы Ростова. Победить врага можно только преодолев предубеждения и остановив религиозные и этнические конфликты внутри княжества.На месте уничтоженного разбойничьего логова Ярослав основывает город, который позже люди назовут его именем.


Качество: BDRip (1080p)
Формат:MKV
Видео кодек: H.264
Аудио кодек: AC3
Видео: 1920x1080p (16:9), 23,976 fps, AVС ,V_MPEG4 ( x264) High@L4.1 ~ 10000 kbps avg, 0.201 bit/pixel
Аудио: Русский: 48 kHz, AC3 6 ch, 640 kbps avg
Общее
UniqueID/String : 247737914430690579677703876148361095644 (0xBA609636F73C3025B7DE989CFE42E9DC)
Полное имя : D:\Ярослав.mkv
Формат : Matroska
Размер файла : 7,69 Гбайт
Продолжительность : 1 ч. 43 м.
Общий поток : 10,6 Мбит/сек
Дата кодирования : UTC 2011-01-09 17:55:40
Программа кодирования : mkvmerge v2.0.2 ('You're My Flame') built on Feb 21 2007 23:40:55
Библиотека кодирования : libebml v0.7.7 + libmatroska v0.8.1

Видео
Идентификатор : 1
Формат : AVC
Формат/Информация : Advanced Video Codec
Профиль формата : High@L4.1
Параметр CABAC формата : Да
Параметр ReFrames формата : 3 кадры
Идентификатор кодека : V_MPEG4/ISO/AVC
Продолжительность : 1 ч. 43 м.
Вид битрейта : Переменный
Битрейт : 10000 Кбит/сек
Максимальный битрейт : 40,0 Мбит/сек
Ширина : 1920 пикс.
Высота : 1080 пикс.
Соотношение сторон : 16:9
Режим частоты кадров : Переменный
Частота кадров : 23,976 кадр/сек
Цветовое пространство : YUV
Подвыборка цветности : 4:2:0
Битовая глубина : 8 бит
Тип развёртки : Прогрессивная
Бит/(Пиксели*Кадры) : 0.201
Размер потока : 7,08 Гбайт (92%)
Библиотека кодирования : x264 core 96
Настройки программы : cabac=1 / ref=3 / deblock=1:0:0 / analyse=0x3:0x133 / me=hex / subme=7 / psy=1 / psy_rd=1.00:0.00 / mixed_ref=1 / me_range=16 / chroma_me=1 / trellis=1 / 8x8dct=1 / cqm=0 / deadzone=21,11 / fast_pskip=1 / chroma_qp_offset=-2 / threads=8 / sliced_threads=0 / nr=0 / decimate=1 / interlaced=0 / constrained_intra=0 / bframes=3 / b_pyramid=1 / b_adapt=2 / b_bias=0 / direct=3 / weightb=1 / weightp=2 / keyint=230 / keyint_min=23 / scenecut=40 / intra_refresh=0 / rc_lookahead=40 / rc=2pass / mbtree=1 / bitrate=10000 / ratetol=0.2 / qcomp=0.60 / qpmin=10 / qpmax=51 / qpstep=4 / cplxblur=20.0 / qblur=0.5 / ip_ratio=1.40 / aq=1:1.0

Аудио
Идентификатор : 2
Формат : AC-3
Формат/Информация : Audio Coding 3
Расширение режима : CM (complete main)
Идентификатор кодека : A_AC3
Продолжительность : 1 ч. 43 м.
Вид битрейта : Постоянный
Битрейт : 640 Кбит/сек
Канал(ы) : 6 канала(ов)
Расположение каналов : Front: L C R, Side: L R, LFE
Частота : 48,0 КГц
Битовая глубина : 16 бит
Метод сжатия : С потерями
Размер потока : 475 Мбайт (6%)
скриншот  скриншот  скриншот  скриншот  
pb.wtf



Скачать Ярослав. Тысячу лет назад через торрент http://s60.radikal.ru/i168/1101/71/851d4f90a2d2.jpg Скачать фильм Ярослав. Тысячу лет назад через торрент бесплантно в хорошем качестве Описание: Киевская Русь, начало второго тысячелетия. Ростовские земли полыхают от межплеменных войн. В лесах, по дорогам и рекам ... 10 10 1
Info! Золотая раздача, скачанное не засчитывается.
Торрент: Зарегистрирован [2011-01-26 13:37] · скачан: 141 раз
Статус: √ проверено
Размер: 7.69 GB
Как cкачать? Как скачать Ярослав. Тысячу лет назад через торрент | qTorrent

% Раздел Тема Автор DL S | L
Наши фильмы 2010-2011 [ 1.46 GB ] Ярослав. Тысячу лет назад [2010 история BDRip-AVC Оригинал] Rzhavec Скачать
1 | 0
Фильмы 2010 [ 2.18 GB ] Ярослав. Тысячу лет назад [2010 история HDRip-AVC ][ лицензия ] IceDevil71 Скачать
1 | 0
Наши фильмы 2010-2011 [ 2.05 GB ] Ярослав. Тысячу лет назад [2010 история DVDRip лицензия] Lil Badun Скачать
1 | 0
Наши фильмы, до 2010 [ 703 MB ] Ярослав. Тысячу лет назад [2010 история DVDRip] WISE Скачать
1 | 0


>> Регистрируемся здесь <<






Отзывы и комментарии о схеме читаем и пишем здесь: ---> Отзывы и комментарии о схеме

Новые благодарочки в телеграм довольных пользователей:
скриншот   скриншот   скриншот   скриншот   скриншот

29-11-2011 16:13 Ярослав. Тысячу лет назад Скачать торрент  

встаньте кто-нить на раздачу,за 2 дня 7мв скачано pb.wtf



    Дорогой пользователь! Огромная просьба, поблагодарите релизера, оцените раздачу и оставьте свои комментарий, если Вы скачали Ярослав. Тысячу лет назад через торрент бесплатно! Внесите свою лепту в развитие PiratBit!
    Комментировать посты могут только пользователи прошедшие не сложную регистрацию
    Показать сообщения:    

    Ярослав. Тысячу лет назад через торрент
    Скачать бесплатно Ярослав. Тысячу лет назад
    Ярослав. Тысячу лет назад скачать торрент
    Ярослав. Тысячу лет назад смотреть онлайн
    Cкачать фильм Ярослав. Тысячу лет назад бесплатно
    Ярослав. Тысячу лет назад скачать торрент в хорошем качестве
    Ярослав. Тысячу лет назад смотреть онлайн бесплатно в хорошем качестве


    Вы не можете начинать темы
    Вы не можете отвечать на сообщения
    Вы не можете редактировать свои сообщения
    Вы не можете удалять свои сообщения
    Вы не можете голосовать в опросах
    Вы не можете прикреплять файлы к сообщениям
    Вы можете скачивать файлы