Ссылка на приватное зеркало нашего сайта всего за 1$. Внимание количество ограничено!!!

2 сезон

iTunes

1 сезон

1

2 сезон

2 сезон

iTunes

1 сезон

RePack

30

Новинка

ВАЖНО

ИГРА 18+

pack

RePack

MK11
pack

Забери бонус

RePack

jed

!!Акция!!

Alien_Rage

RePack

fifa19

RePack

Assassins Creed: Odyssey

RePack

NEED FOR SPEED™ PAYBACK

4 сезон

9 сезон

Бесстыжие 9 сезон

Все сериалы

все сериалы на PB.wtf

RePack

FAR CRY 5
  

Песня имен / The Song of Names (Франсуа Жирар) [2019, Драма, история, WEB-DL 720p] DUB [iTunes] pb.wtf

Песня имен через торрент pb.wtf

Размер: 3.36 GB | Добавлен: 10 мес. назад | Торрент скачан:207 раз
Скачать  

24-01-2020 17:58 Песня имен Скачать торрент  

Песня имен | The Song of Names Год выпуска: 2019
Страна: Канада, Венгрия
Жанр: Драма, история
Продолжительность: 01:48:29
Перевод: Дублированный | iTunes
Субтитры: отсутствуют

Режиссер: Франсуа Жирар

rating

В ролях: Клайв Оуэн, Тим Рот, Джона Хауэр-Кинг, Кэтрин МакКормак, Эдди Иззард, Сол Рубинек, Герран Хауэлл, Ричард Бреммер, Эми Слоун, Макс Макмиллан, Джулиан Уэдэм

Описание: Лондон. Вторая мировая. Когда семья маленького скрипача Довидла погибает, Симмондсы принимают талантливого мальчика, как родного, а для их сына Мартина он становится больше, чем брат. В день, когда Довидл должен был дать первый концерт, никто так и не смог его отыскать... Лишь сорок лет спустя Мартину удается раскрыть тайну исчезновения юного музыканта.

Качество: WEB-DL 720p
Формат: MKV

Видео: MPEG-4 AVC, 4060 Кбит/с, 960x536@1280x536
Аудио: Русский (AC3, 6 ch, 384 Кбит/с)
скриншот  скриншот  скриншот  скриншот  

General
Unique ID: 216772729549810081089592762986919289234 (0xA314E8BA8EEBB4B9A87F15119BB6E192)
Complete name: The.Song.of.Names.2019.720p.WEB-DL.Rus.TeamHD.mkv
Format: Matroska
Format version: Version 4 / Version 2
File size: 3.36 GiB
Duration: 1 h 48 min
Overall bit rate: 4 440 kb/s
Encoded date: UTC 2020-01-31 19:27:51
Writing application: mkvmerge v8.5.1 ('Where you lead I will follow') 64bit
Writing library: libebml v1.3.3 + libmatroska v1.4.4

Video
ID: 1
Format: AVC
Format/Info: Advanced Video Codec
Format profile: Main@L3.1
Format settings, CABAC: No
Format settings, ReFrames: 2 frames
Codec ID: V_MPEG4/ISO/AVC
Duration: 1 h 48 min
Bit rate: 4 054 kb/s
Width: 960 pixels
Height: 536 pixels
Display aspect ratio: 2.40:1
Frame rate mode: Constant
Frame rate: 25.000 FPS
Color space: YUV
Chroma subsampling: 4:2:0
Bit depth: 8 bits
Scan type: Progressive
Bits/(Pixel*Frame): 0.315
Stream size: 3.07 GiB (91%)
Title: Main Program
Language: English
Default: Yes
Forced: No
Color range: Limited
Color primaries: BT.709
Transfer characteristics: BT.709
Matrix coefficients: BT.709

Audio
ID: 2
Format: AC-3
Format/Info: Audio Coding 3
Mode extension: CM (complete main)
Format settings, Endianness: Big
Codec ID: A_AC3
Duration: 1 h 48 min
Bit rate mode: Constant
Bit rate: 384 kb/s
Channel(s): 6 channels
Channel positions: Front: L C R, Side: L R, LFE
Sampling rate: 48.0 kHz
Frame rate: 31.250 FPS (1536 spf)
Bit depth: 16 bits
Compression mode: Lossy
Stream size: 298 MiB (9%)
Title: Russian DUB from iTunes Russia DD 5.1
Language: Russian
Default: Yes
Forced: No

Menu
00:00:00.000: en:Глава 1
00:04:53.120: en:Глава 2
00:13:17.280: en:Глава 3
00:17:39.160: en:Глава 4
00:25:41.760: en:Глава 5
00:30:56.240: en:Глава 6
00:37:05.760: en:Глава 7
00:44:21.200: en:Глава 8
00:50:12.200: en:Глава 9
00:56:02.480: en:Глава 10
01:01:50.880: en:Глава 11
01:06:26.160: en:Глава 12
01:22:28.520: en:Глава 13
01:27:07.280: en:Глава 14
01:36:14.080: en:Глава 15

pb.wtf



Скачать Песня имен через торрент https://b.radikal.ru/b06/2001/cf/6f5a56f2a8bf.png Скачать фильм Песня имен через торрент бесплантно в хорошем качестве Описание: Лондон. Вторая мировая. Когда семья маленького скрипача Довидла погибает, Симмондсы принимают талантливого мальчика, как родного, ... 9.8 10 6
Торрент: Зарегистрирован [2020-02-01 04:29] · скачан: 207 раз
Статус: √ проверено
Размер: 3.36 GB
Как cкачать? Как скачать Песня имен через торрент | qTorrent

% Раздел Тема Автор DL S | L
Фильмы 2019-2020 [DVDrip, WEB-DLRip, HDrip] (DUB, MVO) [ 1.41 GB ] Песня имен / The Song of Names [2019 история BDRip] - Twi7ter Скачать
12 | 1
Фильмы 2019-2020 [DVDrip, WEB-DLRip, HDrip] (DUB, MVO) [ 747 MB ] Песня имен / The Song of Names [2019 история HDRip] bober100 Скачать
4 | 0
Фильмы (Blu-ray, BD-Remux, HDDVD) [ 9.93 GB ] Песня имен / The Song of Names [2019 история BD Remux 1080p] bober100 Скачать
1 | 0
Фильмы [HD 720p, 1080p] (Хороший звук DUB, MVO) [ 7.22 GB ] Песня имен / The Song of Names [2019 история BDRip 1080p] bober100 Скачать
2 | 0
Фильмы [HD 720p, 1080p] (Хороший звук DUB, MVO) [ 3.25 GB ] Песня имен / The Song of Names [2019 история BDRip 720p] bober100 Скачать
2 | 0
Фильмы 2019-2020 [DVDrip, WEB-DLRip, HDrip] (DUB, MVO) [ 1.46 GB ] Песня имен / The Song of Names [2019 история BDRip] bober100 Скачать
4 | 0

28-11-2019 20:33  

Отключить всю рекламу на сайте

    Дорогой пользователь! Огромная просьба, поблагодарите релизера, оцените раздачу и оставьте свои комментарий, если Вы скачали Песня имен через торрент бесплатно! Внесите свою лепту в развитие PiratBit!
    Комментировать посты могут только пользователи прошедшие не сложную регистрацию
    Показать сообщения:    

    Песня имен через торрент
    Скачать бесплатно Песня имен
    Песня имен скачать торрент
    Песня имен смотреть онлайн
    Cкачать фильм Песня имен бесплатно
    Песня имен скачать торрент в хорошем качестве
    Песня имен смотреть онлайн бесплатно в хорошем качестве


    Вы не можете начинать темы
    Вы не можете отвечать на сообщения
    Вы не можете редактировать свои сообщения
    Вы не можете удалять свои сообщения
    Вы не можете голосовать в опросах
    Вы не можете прикреплять файлы к сообщениям
    Вы можете скачивать файлы