2 сезон

iTunes

MVO

1

2 сезон

iTunes

iTunes

1 сезон

RePack

30

Ultimate

ВАЖНО

ИГРА 18+

pack

RePack

MK11
pack

Легкие деньги

RePack

jed

RePack

fifa19

RePack

RDR2

RePack

NEED FOR SPEED™ PAYBACK

4 сезон

9 сезон

Бесстыжие 9 сезон

Все сериалы

все сериалы на PB.wtf

RePack

FAR CRY 5

Anonymous, добрый день, мы не успеваем собрать деньги на оплату серверов за декабрь и январь, помогите нам пожалуйста в это трудное время. В качестве благодарности мы отключим Вам всю рекламу на сайте (укажите свой ник в строку Ваше имя)!

×
  
Magnet ссылка

Проект засекречен / Проект "Синяя книга" / Project Blue Book / Сезон: 2 / Серия: 1- из 10 (Роберт Стромберг, Пит Трэвис, Норма Бэйли) [2020, фантастика, триллер, драма, детектив, WEB-DLRip] MVO [Кириллица] pb.wtf

Проект засекречен через торрент pb.wtf

Размер: 619 MB | Добавлен: 11 мес. назад | Торрент скачан:15 раз
Скачать  

25-01-2020 05:06 Проект засекречен Скачать торрент  

Проект засекречен | Проект "Синяя книга" | Project Blue Book
«***»
Год выпуска: 2020
Страна: США, Канада
Студия: A+E Studios, History Channel
Жанр: фантастика, триллер, драма, детектив
Продолжительность: ~ 00:46:00
Перевод: Профессиональный (многоголосый) | Кириллица
Субтитры: Русский (Full), английские (Full, SDH)

Режиссер: Роберт Стромберг, Пит Трэвис, Норма Бэйли

rating


В ролях: Эйдан Гиллен, Майкл Маларки, Лаура Меннелл, Ксения Соло, Нил МакДонаф, Майкл Харни, Николас Холмс, Джилл Моррисон, Иэн Трейси, Роберт Джон Бёрк и другие.

Описание: Пятидесятые годы прошлого века. Астроном Дж. Аллен Хинек и капитан ВВС США Майкл Квинн разбираются со свидетельствами появления НЛО. В ходе расследования они натыкаются на правительственный заговор, скрывающий от населения правду.

Качество: WEB-DLRip
Формат: AVI

Видео: XviD, ~ 1700 Кбит/с, 704x352
Аудио Rus: AC-3, 48 kHz, 2 ch, 192 kbps |Кириллица|
скриншот  скриншот  скриншот  скриншот  скриншот  

Общее
Полное имя : C:\Project Blue Book.S02.WEB-DLRip\Project.Blue.Book.S02E01.The.Roswell.Incident.Part.1.WEB-DLRip.Кириллица.avi
Формат : AVI
Формат/Информация : Audio Video Interleave
Размер файла : 619 Мбайт
Продолжительность : 45 м. 32 с.
Общий поток : 1901 Кбит/сек
Программа кодирования : VirtualDubMod 1.5.10.3 | www.virtualdub-fr.org || (build 2550/release)
Библиотека кодирования : VirtualDubMod build 2550/release

Видео
Идентификатор : 0
Формат : MPEG-4 Visual
Профиль формата : Advanced Simple@L5
Настройки формата : BVOP2 / Custom Matrix
Параметр BVOP формата : 2
Параметр QPel формата : Нет
Параметр GMC формата : Без точки перехода
Параметр матрицы формата : Выборочная
Идентификатор кодека : XVID
Идентификатор кодека/Подсказка : XviD
Продолжительность : 45 м. 32 с.
Битрейт : 1625 Кбит/сек
Ширина : 704 пикселя
Высота : 352 пикселя
Соотношение сторон : 2,000
Частота кадров : 23,976 (24000/1001) кадра/сек
Цветовое пространство : YUV
Субдискретизация насыщенности : 4:2:0
Битовая глубина : 8 бит
Тип развёртки : Прогрессивная
Метод сжатия : С потерями
Бит/(Пиксели*Кадры) : 0.273
Размер потока : 529 Мбайт (85%)
Библиотека кодирования : XviD 73

Аудио
Идентификатор : 1
Формат : AC-3
Формат/Информация : Audio Coding 3
Коммерческое название : Dolby Digital
Идентификатор кодека : 2000
Продолжительность : 45 м. 31 с.
Вид битрейта : Постоянный
Битрейт : 192 Кбит/сек
Каналы : 2 канала
ChannelLayout : L R
Частота : 48,0 КГц
Частота кадров : 31,250 кадров/сек (1536 SPF)
Битовая глубина : 16 бит
Метод сжатия : С потерями
Размер потока : 62,5 Мбайт (10%)
Выравнивание : Разделение по промежуткам
ServiceKind/String : Complete Main

Когда раздача ведётся путём добавления новых серий, при каждом добавлении создётся новый торрент. Чтобы начать докачку новой серии, пользователям необходимо сделать следующее:
(1) остановить скачивание,
(2) удалить старый торрент у себя из клиента (старые серии удалять не надо),
(3) скачать новый торрент и запустить его у себя в клиенте вместо старого, при этом указать клиенту путь в старую папку, куда и должно происходить скачивание новых серий.
Ваш клиент при этом должен произвести хеширование (проверку) старой папки (если не производит сам - помогите ему сделать это), и будет докачивать только те серии, которых у вас ещё нет. Старые серии при этом не удаляются, а продолжают раздаваться!
Eсли вы уже удалили старые серии, то предотвратить повторную закачку старых серий можно, отжав галочку в соответсвующих местах при запуске нового торрента. По возможности, желательно не удалять старые серии как можно дольше, чтобы релизёр не столько продолжал раздавать старые серии, а смог сконцентрироваться на новых.
pb.wtf



Скачать Проект засекречен через торрент https://i1.imageban.ru/out/2020/01/24/1aded1d04272820b5f70c12b1fd9b0ef.png Скачать фильм Проект засекречен через торрент бесплантно в хорошем качестве Описание: Пятидесятые годы прошлого века. Астроном Дж. Аллен Хинек и капитан ВВС США Майкл Квинн разбираются со свидетельствами появления ... 8.2 10 6
Торрент: Зарегистрирован [2020-01-25 05:06] · скачан: 15 раз
Статус: √ проверено
Размер: 619 MB
Как cкачать? Как скачать Проект засекречен через торрент | UTorrent

28-11-2019 20:33  

Отключить всю рекламу на сайте

    Дорогой пользователь! Огромная просьба, поблагодарите релизера, оцените раздачу и оставьте свои комментарий, если Вы скачали Проект засекречен через торрент бесплатно! Внесите свою лепту в развитие PiratBit!
    Комментировать посты могут только пользователи прошедшие не сложную регистрацию
    Показать сообщения:    

    Проект засекречен через торрент
    Скачать бесплатно Проект засекречен
    Проект засекречен скачать торрент
    Проект засекречен смотреть онлайн
    Cкачать фильм Проект засекречен бесплатно
    Проект засекречен скачать торрент в хорошем качестве
    Проект засекречен смотреть онлайн бесплатно в хорошем качестве


    Вы не можете начинать темы
    Вы не можете отвечать на сообщения
    Вы не можете редактировать свои сообщения
    Вы не можете удалять свои сообщения
    Вы не можете голосовать в опросах
    Вы не можете прикреплять файлы к сообщениям
    Вы можете скачивать файлы