Доктор Стрэндж

Лицензия

Добыча

MVO

Дом дракона

1 сезон

Тор

Лицензия

Мэверик

Лицензия

Там, где раки поют

MVO

Властелин колец

1 сезон

Ultimate

pack

Рекомендуем

30

Repack

ВАЖНО

ВАЖНО

Ghostwire

RePack

jed

RePack

nioh2

RePack

RDR2

RePack

NEED FOR SPEED™ PAYBACK

RePack

скачать торрент

Кинопоиск HD

Острые козырьки 6 сезон

6 сезон

FAR CRY 6

RePack

скачать торрент

Лицензия

скачать торрент

MVO

1

1 сезон

скачать торрент

1 сезон

скачать торрент

Лицензия

  

Доктор Сон / Doctor Sleep (Майк Флэнеган) [2019 г., ужасы, фэнтези, триллер, драма, BDRip 1080p] [DUB] (iTunes)

Доктор Сон через торрент pb.wtf

Раздают: 2 [ 0 KB/s ]
Размер: 10.45 GB | Добавлен: 2 года 8 мес. назад | Торрент скачан:510 раз
Смотреть онлайн Доктор Сон | Скачать   

25-01-2020 12:27 Доктор Сон Скачать торрент  

Доктор Сон / Doctor Sleep
Год выпуска: 2019
Страна: США, Великобритания
Студия: Intrepid Pictures, Vertigo Entertainment, Warner Bros.
Жанр: ужасы, фэнтези, триллер, драма
Продолжительность: 02:32:01
Перевод: Дублированное / iTunes
Субтитры: Русские, украинские, английские

Режиссер: Майк Флэнеган

Премьера в мире: 30 октября 2019

rating

В ролях: Юэн Макгрегор, Ребекка Фергюсон, Кайли Кёрран, Брюс Гринвуд, Зан Маккларнон, Клифф Кёртис, Карл Ламбли, Джейкоб Тремблей, Закари Момо, Эмили Элин Линд

Описание: Прошло много лет с тех пор, как мальчик с паранормальными способностями Дэнни Торранс пережил кошмарный сезон в отеле «Оверлук», где стал свидетелем безумия и гибели своего отца. Повзрослев, Дэн вёл жизнь маргинала-алкоголика, а теперь пытается завязать и устроился на работу в дом престарелых. Там он безошибочно определяет, кому из постояльцев подошла очередь покинуть этот мир, за что и получил прозвище Доктор Сон. Однажды с Дэном устанавливает связь невероятно одарённая «сияющая» девочка Абра. Вскоре ей потребуется его помощь, чтобы противостоять членам организации «Истинный узел» — группы охотников за особенными детьми.

Качество: BDRip 1080p
Формат: MKV
Видео: MPEG-4 AVC, 8626 Кбит/с, 1920x1040
Аудио#1: 48 kHz, AC3, 5.1, 384 Kbps | iTunes | RUS
Аудио#2: 48 kHz, AC3, 2.0, 192 Kbps | iTunes | UKR
Аудио#3: 48 kHz, AC3, 5.1, 640 Kbps | Оригинал | ENG
скриншот  скриншот  скриншот  скриншот  скриншот  
Unique ID : 293332867286385154858295066669188939627 (0xDCADDAF37F700B93ADD17CC284787F6B)
Complete name : D:\Скачки торрент\Doctor.Sleep.2019.Theatrical.BDRip.1080p.mkv
Format : Matroska
Format version : Version 4 / Version 2
File size : 10.5 GiB
Duration : 2h 32mn
Overall bit rate : 9 843 Kbps
Encoded date : UTC 2020-01-24 12:08:06
Writing application : mkvmerge v40.0.0 ('Old Town Road + Pony') 64-bit
Writing library : libebml v1.3.9 + libmatroska v1.5.2
DURATION : 02:25:15.795000000
NUMBER_OF_FRAMES : 1943
NUMBER_OF_BYTES : 46441
_STATISTICS_WRITING_APP : mkvmerge v40.0.0 ('Old Town Road + Pony') 64-bit
_STATISTICS_WRITING_DATE_UTC : 2020-01-24 12:08:06
_STATISTICS_TAGS : BPS DURATION NUMBER_OF_FRAMES NUMBER_OF_BYTES

Video
ID : 1
Format : AVC
Format/Info : Advanced Video Codec
Format profile : [email protected]
Format settings, CABAC : Yes
Format settings, ReFrames : 4 frames
Codec ID : V_MPEG4/ISO/AVC
Duration : 2h 32mn
Bit rate : 8 626 Kbps
Width : 1 920 pixels
Height : 1 040 pixels
Display aspect ratio : 1.85:1
Frame rate mode : Constant
Frame rate : 23.976 fps
Color space : YUV
Chroma subsampling : 4:2:0
Bit depth : 8 bits
Scan type : Progressive
Bits/(Pixel*Frame) : 0.180
Stream size : 8.95 GiB (86%)
Writing library : x264 core 159 r2991 1771b55
Encoding settings : cabac=1 / ref=4 / deblock=1:-3:-3 / analyse=0x3:0x133 / me=umh / subme=7 / psy=1 / psy_rd=1.00:0.00 / mixed_ref=1 / me_range=16 / chroma_me=1 / trellis=2 / 8x8dct=1 / cqm=0 / deadzone=21,11 / fast_pskip=1 / chroma_qp_offset=-2 / threads=16 / lookahead_threads=2 / sliced_threads=0 / nr=0 / decimate=1 / interlaced=0 / bluray_compat=0 / constrained_intra=0 / bframes=3 / b_pyramid=2 / b_adapt=2 / b_bias=0 / direct=3 / weightb=1 / open_gop=0 / weightp=2 / keyint=250 / keyint_min=23 / scenecut=40 / intra_refresh=0 / rc_lookahead=50 / rc=2pass / mbtree=1 / bitrate=8626 / ratetol=1.0 / qcomp=0.60 / qpmin=0 / qpmax=69 / qpstep=4 / cplxblur=20.0 / qblur=0.5 / ip_ratio=1.40 / aq=1:1.00
Language : English
Default : Yes
Forced : No
Matrix coefficients : BT.709
DURATION : 02:32:01.446000000
NUMBER_OF_FRAMES : 218696
NUMBER_OF_BYTES : 9833030334
_STATISTICS_WRITING_APP : mkvmerge v40.0.0 ('Old Town Road + Pony') 64-bit
_STATISTICS_WRITING_DATE_UTC : 2020-01-24 12:08:06
_STATISTICS_TAGS : BPS DURATION NUMBER_OF_FRAMES NUMBER_OF_BYTES

Audio #1
ID : 2
Format : AC-3
Format/Info : Audio Coding 3
Mode extension : CM (complete main)
Format settings, Endianness : Big
Codec ID : A_AC3
Duration : 2h 32mn
Bit rate mode : Constant
Bit rate : 384 Kbps
Channel(s) : 6 channels
Channel positions : Front: L C R, Side: L R, LFE
Sampling rate : 48.0 KHz
Bit depth : 16 bits
Compression mode : Lossy
Stream size : 418 MiB (4%)
Title : iTunes
Language : Russian
Default : Yes
Forced : Yes

Audio #2
ID : 3
Format : AC-3
Format/Info : Audio Coding 3
Mode extension : CM (complete main)
Format settings, Endianness : Big
Codec ID : A_AC3
Duration : 2h 32mn
Bit rate mode : Constant
Bit rate : 192 Kbps
Channel(s) : 2 channels
Channel positions : Front: L R
Sampling rate : 48.0 KHz
Bit depth : 16 bits
Compression mode : Lossy
Stream size : 209 MiB (2%)
Title : iTunes
Language : Ukrainian
Default : No
Forced : No

Audio #3
ID : 4
Format : AC-3
Format/Info : Audio Coding 3
Mode extension : CM (complete main)
Format settings, Endianness : Big
Codec ID : A_AC3
Duration : 2h 32mn
Bit rate mode : Constant
Bit rate : 640 Kbps
Channel(s) : 6 channels
Channel positions : Front: L C R, Side: L R, LFE
Sampling rate : 48.0 KHz
Bit depth : 16 bits
Compression mode : Lossy
Stream size : 696 MiB (7%)
Title : Original
Language : English
Default : No
Forced : No

Text #1
ID : 5
Format : UTF-8
Codec ID : S_TEXT/UTF8
Codec ID/Info : UTF-8 Plain Text
Title : Forced
Language : Russian
Default : Yes
Forced : Yes

Text #2
ID : 6
Format : UTF-8
Codec ID : S_TEXT/UTF8
Codec ID/Info : UTF-8 Plain Text
Title : Full
Language : Russian
Default : No
Forced : No

Text #3
ID : 7
Format : UTF-8
Codec ID : S_TEXT/UTF8
Codec ID/Info : UTF-8 Plain Text
Title : Forced
Language : Ukrainian
Default : No
Forced : No

Text #4
ID : 8
Format : UTF-8
Codec ID : S_TEXT/UTF8
Codec ID/Info : UTF-8 Plain Text
Title : Full
Language : English
Default : No
Forced : No

Text #5
ID : 9
Format : UTF-8
Codec ID : S_TEXT/UTF8
Codec ID/Info : UTF-8 Plain Text
Title : SDH
Language : English
Default : No
Forced : No



Скачать Доктор Сон через торрент https://pic1.kartinco.top/images/12/kibyh.jpg Скачать, смотреть онлайн Доктор Сон бесплантно в хорошем качестве Описание: Прошло много лет с тех пор, как мальчик с паранормальными способностями Дэнни Торранс пережил кошмарный сезон в отеле «Оверлук», ... 10 10 16
Info! Золотая раздача, скачанное не засчитывается.
Торрент: Зарегистрирован [2020-01-25 12:27] · скачан: 510 раз
Статус: T временная
Размер: 10.45 GB
Как cкачать? Как скачать Доктор Сон через торрент | UTorrent

% Раздел Тема Автор DL S | L
Фильмы 2019-2020 [DVDrip, WEB-DLRip, HDrip] (DUB, MVO) [ 1.46 GB ] Доктор Сон / Doctor Sleep | Лицензия | BDRip bober100 Скачать
1 | 0
Фильмы 2019-2020 [DVDrip, WEB-DLRip, HDrip] (DUB, MVO) [ 2.91 GB ] Доктор Сон / Doctor Sleep | Лицензия | BDRip bober100 Скачать
2 | 0
Фильмы (Blu-ray, BD-Remux, HDDVD) [ 40.57 GB ] Доктор Сон / Doctor Sleep | Лицензия | 1080p bober100 Скачать
1 | 0
Фильмы 2019-2020 [DVDrip, WEB-DLRip, HDrip] (DUB, MVO) [ 2.18 GB ] Доктор Сон / Doctor Sleep | Лицензия | HDRip от Twi7ter Twi7ter Скачать
6 | 0
Фильмы (Blu-ray, BD-Remux, HDDVD) [ 30.65 GB ] Доктор Сон / Doctor Sleep | Лицензия | BD Remux 1080p bober100 Скачать
2 | 0
Фильмы 2019-2020 [DVDrip, WEB-DLRip, HDrip] (DUB, MVO) [ 1.46 GB ] Доктор Сон / Doctor Sleep | Лицензия | HDRip от Twi7ter Twi7ter Скачать
3 | 0
Фильмы без перевода [ 6.95 GB ] Доктор Сон / Doctor Sleep | | 1080p killermax2013 Скачать
1 | 0



Последний раз редактировалось: serega67 (2020-01-25 22:07), всего редактировалось 2 раз(а)

28-11-2019 20:33  

Отключить вcю реклaмy на сайте

08-02-2020 07:44 Доктор Сон Скачать торрент  

    Дорогой пользователь! Огромная просьба, поблагодарите релизера, оцените раздачу и оставьте свои комментарий, если Вы скачали Доктор Сон через торрент бесплатно!!
    Комментировать посты могут только пользователи прошедшие не сложную регистрацию
    Показать сообщения:    


    Доктор Сон через торрент
    Скачать бесплатно Доктор Сон
    Доктор Сон скачать торрент
    Доктор Сон смотреть онлайн
    Cкачать фильм Доктор Сон бесплатно
    Доктор Сон скачать торрент в хорошем качестве
    Доктор Сон смотреть онлайн бесплатно в хорошем качестве
    Вы не можете начинать темы
    Вы не можете отвечать на сообщения
    Вы не можете редактировать свои сообщения
    Вы не можете удалять свои сообщения
    Вы не можете голосовать в опросах
    Вы не можете прикреплять файлы к сообщениям
    Вы можете скачивать файлы