Ссылка на приватное зеркало нашего сайта всего за 1$. Внимание количество ограничено!!!

2 сезон

iTunes

1 сезон

1

2 сезон

2 сезон

iTunes

1 сезон

RePack

30

Ultimate

ВАЖНО

ИГРА 18+

pack

RePack

MK11
pack

Забери бонус

RePack

jed

!!Акция!!

Alien_Rage

RePack

fifa19

RePack

Assassins Creed: Odyssey

RePack

NEED FOR SPEED™ PAYBACK

4 сезон

9 сезон

Бесстыжие 9 сезон

Все сериалы

все сериалы на PB.wtf

RePack

FAR CRY 5
  

Паранойя / Paranoia (Умберто Ленци) [1970, триллер, драма, детектив, BDRip 1080p by msltel] VO pb.wtf

Паранойя через торрент pb.wtf

Размер: 8.56 GB | Добавлен: 10 мес. назад | Торрент скачан:3 раза
Скачать  

26-01-2020 09:05 Паранойя Скачать торрент  

Название: Паранойя
Оригинальное название: Paranoia
Год выпуска: 1970
Страна: Италия, Франция, Испания
Жанр: триллер, драма, детектив
Продолжительность: 01:33:54
Перевод: любительский одноголосый
Режиссер: Умберто Ленци
В ролях: Кэрролл Бэйкер, Жан Сорель, Луис Давила, Альберто Дальбес, Марина Коффа, Анна Проклемер, Уго Бланко, Лиза Хальворсен, Мануэль Диаз Веласко, Жак Стани

О фильме: Главная героиня фильма Хелен зарабатывает на жизнь автогонками. Однажды она попадает в крупную аварию, после которой врачи настоятельно советуют ей отказаться от всех вредных привычек, бросить гонки и вести спокойный образ жизни, без потрясений и стрессов. В день выхода из больницы она получает письмо от своего бывшего мужа Мориса, который приглашает её приехать к нему на виллу в Испанию. Недолго поколебавшись, она срывается из родного города и едет к нему. Приехав, она обнаруживает, что Морис женат на богатой и уже немолодой женщине Констанс и с удивлением узнаёт, что это приглашение написал вовсе не Морис, а его новая жена...



Качество: BDRip 1080p
Формат: MKV
Видео: MPEG-4 AVC, 11.3 Mбит/с, 1920x816
Аудио 1: русский, AC3, 192 kbps, 2 ch, 48 kHz [закадровый одноголосый, женский]
Аудио 2: итальянский, DTS, 1509 kbps, 2 ch, 48 kHz [оригинал]
Субтитры 1: русские
Субтитры 2: английские
Главы/чаптеры
Общее
Уникальный идентификатор : 187445053950910457084302664285686478916 (0x8D049AAF05CD6EA4B65C7A0648FA3844)
Полное имя : D:\Video\Паранойя.1970.BDRip 1080p by msltel.mkv
Формат : Matroska
Версия формата : Version 4
Размер файла : 8,56 Гбайт
Продолжительность : 1 ч. 33 м.
Общий поток : 13,0 Мбит/сек
Название фильма : Rip by msltel
Дата кодирования : UTC 2020-01-26 05:42:14
Программа кодирования : mkvmerge v8.2.0 ('World of Adventure') 64bit
Библиотека кодирования : libebml v1.3.1 + libmatroska v1.4.2

Видео
Идентификатор : 1
Формат : AVC
Формат/Информация : Advanced Video Codec
Профиль формата : High@L4.1
Настройки формата : CABAC / 4 Ref Frames
Параметр CABAC формата : Да
Параметр RefFrames формата : 4 кадра
Идентификатор кодека : V_MPEG4/ISO/AVC
Продолжительность : 1 ч. 33 м.
Битрейт : 11,3 Мбит/сек
Ширина : 1920 пикселей
Высота : 816 пикселей
Соотношение сторон : 2,35:1
Режим частоты кадров : Постоянный
Частота кадров : 23,976 (24000/1001) кадра/сек
Цветовое пространство : YUV
Субдискретизация насыщенности : 4:2:0
Битовая глубина : 8 бит
Тип развёртки : Прогрессивная
Бит/(Пиксели*Кадры) : 0.302
Размер потока : 7,44 Гбайт (87%)
Библиотека кодирования : x264 core 157 r2969 d4099dd
Настройки программы : cabac=1 / ref=4 / deblock=1:-2:-2 / analyse=0x3:0x113 / me=umh / subme=11 / psy=1 / psy_rd=1.00:0.15 / mixed_ref=1 / me_range=32 / chroma_me=1 / trellis=2 / 8x8dct=1 / cqm=0 / deadzone=21,11 / fast_pskip=0 / chroma_qp_offset=-3 / threads=6 / lookahead_threads=1 / sliced_threads=0 / nr=0 / decimate=1 / interlaced=0 / bluray_compat=0 / constrained_intra=0 / bframes=10 / b_pyramid=2 / b_adapt=2 / b_bias=0 / direct=1 / weightb=1 / open_gop=0 / weightp=2 / keyint=230 / keyint_min=23 / scenecut=40 / intra_refresh=0 / rc_lookahead=40 / rc=crf / mbtree=0 / crf=21.2 / qcomp=0.60 / qpmin=0 / qpmax=69 / qpstep=4 / vbv_maxrate=50000 / vbv_bufsize=62500 / crf_max=0.0 / nal_hrd=none / filler=0 / ip_ratio=1.40 / pb_ratio=1.30 / aq=1:1.00
Язык : Italian
Default : Да
Forced : Нет

Аудио #1
Идентификатор : 2
Формат : AC-3
Формат/Информация : Audio Coding 3
Коммерческое название : Dolby Digital
Идентификатор кодека : A_AC3
Продолжительность : 1 ч. 33 м.
Вид битрейта : Постоянный
Битрейт : 192 Кбит/сек
Каналы : 2 канала
ChannelLayout : L R
Частота : 48,0 КГц
Частота кадров : 31,250 кадров/сек (1536 SPF)
Метод сжатия : С потерями
Размер потока : 129 Мбайт (1%)
Заголовок : VO (женский)
Язык : Russian
ServiceKind/String : Complete Main
Default : Да
Forced : Нет

Аудио #2
Идентификатор : 3
Формат : DTS
Формат/Информация : Digital Theater Systems
Идентификатор кодека : A_DTS
Продолжительность : 1 ч. 33 м.
Вид битрейта : Постоянный
Битрейт : 1509 Кбит/сек
Каналы : 2 канала
ChannelLayout : L R
Частота : 48,0 КГц
Частота кадров : 93,750 кадра/сек (512 SPF)
Битовая глубина : 16 бит
Метод сжатия : С потерями
Размер потока : 1013 Мбайт (12%)
Заголовок : original
Язык : Italian
Default : Нет
Forced : Нет

Текст #1
Идентификатор : 4
Формат : UTF-8
Идентификатор кодека : S_TEXT/UTF8
Идентификатор кодека/Информация : UTF-8 Plain Text
Продолжительность : 1 ч. 32 м.
Битрейт : 81 бит/сек
ElementCount : 842
Размер потока : 55,8 Кбайт (0%)
Заголовок : русские
Язык : Russian
Default : Нет
Forced : Нет

Текст #2
Идентификатор : 5
Формат : UTF-8
Идентификатор кодека : S_TEXT/UTF8
Идентификатор кодека/Информация : UTF-8 Plain Text
Продолжительность : 1 ч. 29 м.
Битрейт : 40 бит/сек
ElementCount : 942
Размер потока : 26,7 Кбайт (0%)
Заголовок : английские
Язык : English
Default : Нет
Forced : Нет

Меню
00:00:00.000 : en:Chapter 1
00:09:36.451 : en:Chapter 2
00:28:44.598 : en:Chapter 3
00:54:27.764 : en:Chapter 4
01:17:28.477 : en:Chapter 5
01:20:21.316 : en:Chapter 6
pb.wtf



Скачать Паранойя через торрент https://d.radikal.ru/d31/2001/33/4e0fbe0476dc.jpg Скачать фильм Паранойя через торрент бесплантно в хорошем качестве О фильме: Главная героиня фильма Хелен зарабатывает на жизнь автогонками. Однажды она попадает в крупную аварию, после которой врачи ... 5 10 1
Торрент: Зарегистрирован [2020-01-26 09:05] · скачан: 3 раз
Статус: √ проверено
Размер: 8.56 GB
Как cкачать? Как скачать Паранойя через торрент | qTorrent

% Раздел Тема Автор DL S | L
Фильмы [HD 720p, 1080p] (Звук Cam, VO, DVO) [ 3.01 GB ] Паранойя / Paranoia [1970 BDRip 720p by msltel] VO msltel Скачать
1 | 0
Фильмы до 2000 г. [ 1.75 GB ] Паранойя / Paranoia [1970 BDRip-AVC by msltel] VO msltel Скачать
1 | 0

28-11-2019 20:33  

Отключить всю рекламу на сайте

    Дорогой пользователь! Огромная просьба, поблагодарите релизера, оцените раздачу и оставьте свои комментарий, если Вы скачали Паранойя через торрент бесплатно! Внесите свою лепту в развитие PiratBit!
    Комментировать посты могут только пользователи прошедшие не сложную регистрацию
    Показать сообщения:    

    Паранойя через торрент
    Скачать бесплатно Паранойя
    Паранойя скачать торрент
    Паранойя смотреть онлайн
    Cкачать фильм Паранойя бесплатно
    Паранойя скачать торрент в хорошем качестве
    Паранойя смотреть онлайн бесплатно в хорошем качестве


    Вы не можете начинать темы
    Вы не можете отвечать на сообщения
    Вы не можете редактировать свои сообщения
    Вы не можете удалять свои сообщения
    Вы не можете голосовать в опросах
    Вы не можете прикреплять файлы к сообщениям
    Вы можете скачивать файлы