Ссылка на приватное зеркало нашего сайта всего за 1$. Внимание количество ограничено!!!

2 сезон

iTunes

1 сезон

1

iTunes

iTunes

iTunes

1 сезон

RePack

30

ИГРА 18+

pack

ВАЖНО

!!Акция!!

Alien_RageХит недели

RePack

MK11
pack

Забери бонус

RePack

jed

!!Акция!!

Alien_Rage

RePack

fifa19

RePack

Assassins Creed: Odyssey

RePack

NEED FOR SPEED™ PAYBACK

4 сезон

9 сезон

Бесстыжие 9 сезон

Все сериалы

все сериалы на PB.wtf

RePack

FAR CRY 5
  

Бывших не бывает / Серии: 1-4 из 4 (Зиновий Ройзман) [2013, боевик, HDTVRip] pb.wtf

Бывших не бывает через торрент pb.wtf

Размер: 2.43 GB | Добавлен: 8 мес. назад | Торрент скачан:37 раз
Скачать  

26-01-2020 10:22 Бывших не бывает Скачать торрент  

Бывших не бывает Год выпуска: 2013
Страна: Россия
Жанр: боевик
Продолжительность: ~ 00:50:00
Перевод: Не требуется
Субтитры: отсутствуют

Режиссер: Зиновий Ройзман



В ролях: Сергей Горобченко, Павел Трубинер, Юрий Назаров, Ольга Ломоносова, Ольга Филиппова, Дмитрий Быковский-Ромашов, Антон Сёмкин, Азиз Бейшеналиев, Геннадий Пачис, Наталья Варнакова, Роман Евдокимов, Сергей Лобанов (II), Ангелина Добророднова, Александр Хващинский, Антон Степанов, Алексей Овсянников, Ольга Варнакова, Алена Новицкая, Артём Чилек

Описание: В семье Виктора Платонова случилась беда: тяжело ранен сын. Спасти его может только операция стоимостью в 500 тысяч долларов. Таких денег у Платонова нет, однако операцию готов оплатить местный криминальный авторитет. Все, что нужно Виктору – доставить в соседний город некий товар. Выбор исполнителя для этого дела неслучаен: Платонов – бывший сотрудник специального подразделения разведки «Группа 6». И он вынужден согласиться…

Качество: HDTVRip
Формат: AVI

Видео: 720x400 (16:9), 25.000 fps, XviD build 73, 1592 Kbps, 0.22 bits/pixel
Аудио: 48.0 kHz, AC3 Dolby Digital, 2/0 (L,R) ch, ~ 192 kbps
скриншот  скриншот  скриншот  скриншот  

General
Complete name : Downloads\Byvshih ne byvaet.HDTVRip.GeneralFilm\Byvshih ne byvaet.01.HDTVRip.GeneralFilm.avi
Format : AVI
Format/Info : Audio Video Interleave
File size : 600 MiB
Duration : 46mn 44s
Overall bit rate : 1 794 Kbps
Writing application : VirtualDubMod 1.5.10.3 (build 2550/release)
Writing library : VirtualDubMod build 2550/release
Video #0
ID : 0
Format : MPEG-4 Visual
Format profile : Advanced Simple@L5
Format settings, BVOP : 1
Format settings, QPel : No
Format settings, GMC : No warppoints
Format settings, Matrix : Custom
Codec ID : XVID
Codec ID/Hint : XviD
Duration : 46mn 44s
Bit rate : 1 592 Kbps
Width : 720 pixels
Height : 400 pixels
Display aspect ratio : 16:9
Frame rate : 25.000 fps
Color space : YUV
Chroma subsampling : 4:2:0
Bit depth : 8 bits
Scan type : Progressive
Compression mode : Lossy
Bits/(Pixel*Frame) : 0.221
Stream size : 532 MiB (89%)
Writing library : XviD 73
Audio #1
ID : 1
Format : AC-3
Format/Info : Audio Coding 3
Mode extension : CM (complete main)
Format settings, Endianness : Big
Codec ID : 2000
Duration : 46mn 44s
Bit rate mode : Constant
Bit rate : 192 Kbps
Channel(s) : 2 channels
Channel positions : Front: L R
Sampling rate : 48.0 KHz
Bit depth : 16 bits
Compression mode : Lossy
Stream size : 64.2 MiB (11%)
Alignment : Split accross interleaves
Interleave, duration : 40 ms (1.00 video frame)
Interleave, preload duration : 500 ms

pb.wtf



Скачать Бывших не бывает через торрент http://pic1.kartinco.top/images/11/kb3ve.jpg Скачать фильм Бывших не бывает через торрент бесплантно в хорошем качестве Описание: В семье Виктора Платонова случилась беда: тяжело ранен сын. Спасти его может только операция стоимостью в 500 тысяч долларов. ... 10 10 2
Торрент: Зарегистрирован [2020-01-26 10:22] · скачан: 37 раз
Статус: √ проверено
Размер: 2.43 GB
Как cкачать? Как скачать Бывших не бывает через торрент | qTorrent

% Раздел Тема Автор DL S | L
Наши сериалы [ 2.97 GB ] Бывших не бывает / Серии: 1-4 из 4 [2013 HDTVRip-AVC] bober100 Скачать
1 | 0
Наши сериалы [ 5.01 GB ] Бывших не бывает / Серии: 1-4 из 4 [2013 HDTVRip 720p] bober100 Скачать
1 | 0
Наши сериалы [ 12.06 GB ] Бывших не бывает / Серии: 1-4 из 4 [2013 HDTV 1080i] bober100 Скачать
1 | 0
Наши сериалы [ 3.06 GB ] Бывших не бывает / Серии: 1-4 из 4 [2013 WEB-DLRip-AVC] bober100 Скачать
1 | 0
Наши сериалы [ 2.27 GB ] Бывших не бывает / Серии: 1-4 из 4 [2013 SATRip-AVC] aleksan55 Скачать
1 | 0
Наши сериалы [ 2.22 GB ] Бывших не бывает / / Серии 1-4 из 4 [2013 Россия IPTVRip) GEKADOL Скачать
1 | 0

28-11-2019 20:33  

Отключить всю рекламу на сайте

    Дорогой пользователь! Огромная просьба, поблагодарите релизера, оцените раздачу и оставьте свои комментарий, если Вы скачали Бывших не бывает через торрент бесплатно! Внесите свою лепту в развитие PiratBit!
    Комментировать посты могут только пользователи прошедшие не сложную регистрацию
    Показать сообщения:    

    Бывших не бывает через торрент
    Скачать бесплатно Бывших не бывает
    Бывших не бывает скачать торрент
    Бывших не бывает смотреть онлайн
    Cкачать фильм Бывших не бывает бесплатно
    Бывших не бывает скачать торрент в хорошем качестве
    Бывших не бывает смотреть онлайн бесплатно в хорошем качестве


    Вы не можете начинать темы
    Вы не можете отвечать на сообщения
    Вы не можете редактировать свои сообщения
    Вы не можете удалять свои сообщения
    Вы не можете голосовать в опросах
    Вы не можете прикреплять файлы к сообщениям
    Вы можете скачивать файлы