Ссылка на приватное зеркало нашего сайта всего за 1$. Внимание количество ограничено!!!

2 сезон

iTunes

1 сезон

1

iTunes

iTunes

iTunes

1 сезон

RePack

30

ИГРА 18+

pack

ВАЖНО

!!Акция!!

Alien_RageХит недели

RePack

MK11
pack

Забери бонус

RePack

jed

!!Акция!!

Alien_Rage

RePack

fifa19

RePack

Assassins Creed: Odyssey

RePack

NEED FOR SPEED™ PAYBACK

4 сезон

9 сезон

Бесстыжие 9 сезон

Все сериалы

все сериалы на PB.wtf

RePack

FAR CRY 5
  

Бывших не бывает / Серии: 1-4 из 4 (Зиновий Ройзман) [2013, боевик, HDTVRip-AVC] pb.wtf

Бывших не бывает через торрент pb.wtf

Размер: 2.97 GB | Добавлен: 8 мес. назад | Торрент скачан:47 раз
Скачать  

26-01-2020 10:22 Бывших не бывает Скачать торрент  

Бывших не бывает Год выпуска: 2013
Страна: Россия
Жанр: боевик
Продолжительность: ~ 00:50:00
Перевод: Не требуется
Субтитры: отсутствуют

Режиссер: Зиновий Ройзман



В ролях: Сергей Горобченко, Павел Трубинер, Юрий Назаров, Ольга Ломоносова, Ольга Филиппова, Дмитрий Быковский-Ромашов, Антон Сёмкин, Азиз Бейшеналиев, Геннадий Пачис, Наталья Варнакова, Роман Евдокимов, Сергей Лобанов (II), Ангелина Добророднова, Александр Хващинский, Антон Степанов, Алексей Овсянников, Ольга Варнакова, Алена Новицкая, Артём Чилек

Описание: В семье Виктора Платонова случилась беда: тяжело ранен сын. Спасти его может только операция стоимостью в 500 тысяч долларов. Таких денег у Платонова нет, однако операцию готов оплатить местный криминальный авторитет. Все, что нужно Виктору – доставить в соседний город некий товар. Выбор исполнителя для этого дела неслучаен: Платонов – бывший сотрудник специального подразделения разведки «Группа 6». И он вынужден согласиться…

Качество: HDTVRip-AVC
Формат: MKV

Видео: 1024x576 (16:9), 25 fps, AVC MPEG-4 (x264), High@L4.1, ~ 2000 kbps avg, 0.136 bit/pixel
Аудио: 48.0 kHz, AC3 Dolby Digital, 2/0 (L,R) ch, ~ 192 kbps
скриншот  скриншот  скриншот  скриншот  

Общее
Уникальный идентификатор : 230965430692345568651572075295024339848 (0xADC252EBB10C442C825C1ABE5FFFDB88)
Полное имя : C:\Byvshih ne byvaet.HDTVRip.(AVC).\Byvshih ne byvaet.01.HDTVRip.(AVC).mkv
Формат : Matroska
Версия формата : Version 2
Размер файла : 733 Мбайт
Продолжительность : 46 м. 44 с.
Общий поток : 2194 Кбит/сек
Дата кодирования : UTC 2017-02-18 03:28:16
Программа кодирования : mkvmerge v7.8.0 ('River Man') 32bit built on Apr 3 2015 12:11:22
Библиотека кодирования : libebml v1.3.1 + libmatroska v1.4.2

Видео
Идентификатор : 1
Формат : AVC
Формат/Информация : Advanced Video Codec
Профиль формата : High@L4.1
Параметр CABAC формата : Да
Параметр ReFrames формата : 8 кадров
Идентификатор кодека : V_MPEG4/ISO/AVC
Продолжительность : 46 м. 44 с.
Битрейт : 2000 Кбит/сек
Ширина : 1024 пикселя
Высота : 576 пикселей
Соотношение сторон : 16:9
Режим частоты кадров : Постоянный
Частота кадров : 25,000 кадров/сек
Цветовое пространство : YUV
Субдискретизация насыщенности : 4:2:0
Битовая глубина : 8 бит
Тип развёртки : Прогрессивная
Бит/(Пиксели*Кадры) : 0.136
Размер потока : 655 Мбайт (89%)
Библиотека кодирования : x264 core 146 r2538 121396c
Настройки программы : cabac=1 / ref=8 / deblock=1:-2:-1 / analyse=0x3:0x113 / me=umh / subme=9 / psy=1 / psy_rd=1.00:0.15 / mixed_ref=1 / me_range=32 / chroma_me=1 / trellis=2 / 8x8dct=1 / cqm=0 / deadzone=21,11 / fast_pskip=0 / chroma_qp_offset=-3 / threads=6 / lookahead_threads=1 / sliced_threads=0 / nr=0 / decimate=0 / interlaced=0 / bluray_compat=0 / constrained_intra=0 / bframes=9 / b_pyramid=2 / b_adapt=2 / b_bias=0 / direct=3 / weightb=1 / open_gop=0 / weightp=2 / keyint=250 / keyint_min=25 / scenecut=40 / intra_refresh=0 / rc_lookahead=40 / rc=2pass / mbtree=0 / bitrate=2000 / ratetol=1.0 / qcomp=0.60 / qpmin=0 / qpmax=69 / qpstep=4 / cplxblur=20.0 / qblur=0.5 / vbv_maxrate=14000 / vbv_bufsize=14000 / nal_hrd=none / filler=0 / ip_ratio=1.40 / pb_ratio=1.30 / aq=2:1.00
Default : Да
Forced : Нет
Цветовой диапазон : Limited
Основные цвета : BT.709
Характеристики трансфера : BT.709
Коэффициенты матрицы : BT.709

Аудио
Идентификатор : 2
Формат : AC-3
Формат/Информация : Audio Coding 3
Расширение режима : CM (complete main)
Параметр Endianness формата : Big
Идентификатор кодека : A_AC3
Продолжительность : 46 м. 44 с.
Вид битрейта : Постоянный
Битрейт : 192 Кбит/сек
Каналы : 2 канала
Расположение каналов : Front: L R
Частота : 48,0 КГц
Частота кадров : 31,250 кадров/сек (1536 spf)
Битовая глубина : 16 бит
Метод сжатия : С потерями
Размер потока : 64,2 Мбайт (9%)
Default : Да
Forced : Нет

pb.wtf



Скачать Бывших не бывает через торрент http://pic1.kartinco.top/images/11/kb3ve.jpg Скачать фильм Бывших не бывает через торрент бесплантно в хорошем качестве Описание: В семье Виктора Платонова случилась беда: тяжело ранен сын. Спасти его может только операция стоимостью в 500 тысяч долларов. ... 10 10 4
Торрент: Зарегистрирован [2020-01-26 10:22] · скачан: 47 раз
Статус: √ проверено
Размер: 2.97 GB
Как cкачать? Как скачать Бывших не бывает через торрент | qTorrent

% Раздел Тема Автор DL S | L
Наши сериалы [ 2.43 GB ] Бывших не бывает / Серии: 1-4 из 4 [2013 HDTVRip] bober100 Скачать
1 | 0
Наши сериалы [ 5.01 GB ] Бывших не бывает / Серии: 1-4 из 4 [2013 HDTVRip 720p] bober100 Скачать
1 | 0
Наши сериалы [ 12.06 GB ] Бывших не бывает / Серии: 1-4 из 4 [2013 HDTV 1080i] bober100 Скачать
1 | 0
Наши сериалы [ 3.06 GB ] Бывших не бывает / Серии: 1-4 из 4 [2013 WEB-DLRip-AVC] bober100 Скачать
1 | 0
Наши сериалы [ 2.27 GB ] Бывших не бывает / Серии: 1-4 из 4 [2013 SATRip-AVC] aleksan55 Скачать
1 | 0
Наши сериалы [ 2.22 GB ] Бывших не бывает / / Серии 1-4 из 4 [2013 Россия IPTVRip) GEKADOL Скачать
1 | 0

28-11-2019 20:33  

Отключить всю рекламу на сайте

    Дорогой пользователь! Огромная просьба, поблагодарите релизера, оцените раздачу и оставьте свои комментарий, если Вы скачали Бывших не бывает через торрент бесплатно! Внесите свою лепту в развитие PiratBit!
    Комментировать посты могут только пользователи прошедшие не сложную регистрацию
    Показать сообщения:    

    Бывших не бывает через торрент
    Скачать бесплатно Бывших не бывает
    Бывших не бывает скачать торрент
    Бывших не бывает смотреть онлайн
    Cкачать фильм Бывших не бывает бесплатно
    Бывших не бывает скачать торрент в хорошем качестве
    Бывших не бывает смотреть онлайн бесплатно в хорошем качестве


    Вы не можете начинать темы
    Вы не можете отвечать на сообщения
    Вы не можете редактировать свои сообщения
    Вы не можете удалять свои сообщения
    Вы не можете голосовать в опросах
    Вы не можете прикреплять файлы к сообщениям
    Вы можете скачивать файлы