Достать ножи: Стеклянная луковица

MVO

Добыча

Дубляж

Уэнсдэй

1 сезон

Тор

Дубляж

13 клиническая

1 сезон

Жестокая ночь

MVO

Одни из нас

1 сезон

Deluxe

pack

Рекомендуем

30

Пиратка

ВАЖНО

ВАЖНО

Ghostwire

Пиратка

jed

RePack

nioh2

RePack

RDR2

RePack

NEED FOR SPEED™ PAYBACK

RePack

скачать торрент

Кинопоиск HD

Острые козырьки 6 сезон

6 сезон

FAR CRY 6

RePack

скачать торрент

Лицензия

скачать торрент

MVO

1

1 сезон

скачать торрент

1 сезон

скачать торрент

Лицензия

  

Проклятый путь / Road to Perdition (Сэм Мендес) [2002, Триллер, драма, криминал, WEB-DL 1080p, (Open Matte)] Дубляж+MVO+5xAVO

Проклятый путь через торрент pb.wtf

Размер: 13.15 GB | Добавлен: 3 года назад | Торрент скачан:125 раз
Смотреть онлайн | Скачать | Поддержите нас   

26-01-2020 17:24 Проклятый путь Скачать торрент  

Проклятый путь | Road to Perdition
Год выпуска: 2002
Страна: США
Жанр: Триллер, драма, криминал
Продолжительность: 01:57:09
Перевод: Дублированный, профессиональный (многоголосый), авторский (одноголосый)
Субтитры: Русские (Forced, full), английские

Режиссер: Сэм Мендес

rating

В ролях: Том Хэнкс, Тайлер Хэклин, Пол Ньюман, Джуд Лоу, Дэниэл Крэйг, Дженнифер Джейсон Ли, Лиам Эйкен, Киаран Хиндс, Дилан Бейкер, Стэнли Туччи

Описание: Внешне вполне среднестатистический американец Майкл Салливан живёт жизнью нормального гражданина 30-х годов XX века. Он хороший отец, крепкий семьянин, ответственный работник; но одно не дает покоя его старшему сыну Майклу — куда именно отец уезжает на своей машине каждое утро и что за люди окружают его — в костюмах идеального покроя, но со странной хитрецой в глазах? Однажды Майкл забирается на заднее сиденье машины отца и становится свидетелем его работы. Проблема в том, что Майкл Салливан — самый настоящий гангстер, выполняющий деликатные поручения, где нет места лишним свидетелям. Из-за этого жизнь его сына оказывается под угрозой. Чтобы спасти его, Майкл вынужден пойти против боссов мафии…

Качество: WEB-DL 1080p | Open Matte
Формат: MKV

Видео: 1920x1080, 11100 kbps, 23,976 fps
Аудио #1: AC-3, 6 ch, 448 kbps (Rus) - Дубляж CPIG
Аудио #2: AC-3, 6 ch, 384 kbps (Rus) - MVO R1
Аудио #3: AC-3, 6 ch, 640 kbps (Rus) - AVO Гаврилов Андрей Юрьевич
Аудио #4: AC-3, 6 ch, 640 kbps (Rus) - AVO Живов Юрий Викторович
Аудио #5: AC-3, 6 ch, 640 kbps (Rus) - AVO Горчаков Василий Овидиевич
Аудио #6: AC-3, 6 ch, 640 kbps (Rus) - AVO Рудой Евгений
Аудио #7: AC-3, 6 ch, 640 kbps (Rus) - AVO Есарев Дмитрий
Аудио #8: AC-3, 6 ch, 640 kbps (Eng)
скриншот  скриншот  скриншот  скриншот  скриншот  

Общее
Уникальный идентификатор : 172213542908709191587217382738686447593 (0x818F1F359AC12F37AD439B3028610FE9)
Полное имя : Проклятый путь (Road to Perdition) 2002 WEBRip 1080p.mkv
Формат : Matroska
Версия формата : Version 2
Размер файла : 13,2 Гбайт
Продолжительность : 1 ч. 57 м.
Режим общего битрейта : Переменный
Общий поток : 16,1 Мбит/сек
Дата кодирования : UTC 2019-12-10 21:36:38
Программа кодирования : mkvmerge v4.0.0 ('The Stars were mine') сборка от Jun 6 2010 16:18:42
Библиотека кодирования : libebml v1.0.0 + libmatroska v1.0.0

Видео
Идентификатор : 1
Формат : AVC
Формат/Информация : Advanced Video Codec
Профиль формата : [email protected]
Параметр CABAC формата : Да
Параметр ReFrames формата : 4 кадра
Идентификатор кодека : V_MPEG4/ISO/AVC
Продолжительность : 1 ч. 57 м.
Вид битрейта : Переменный
Битрейт : 11,1 Мбит/сек
Максимальный битрейт : 15,0 Мбит/сек
Ширина : 1920 пикселей
Высота : 1080 пикселей
Соотношение сторон : 16:9
Режим частоты кадров : Постоянный
Частота кадров : 23,976 (24000/1001) кадра/сек
Цветовое пространство : YUV
Субдискретизация насыщенности : 4:2:0
Битовая глубина : 8 бит
Тип развёртки : Прогрессивная
Бит/(Пиксели*Кадры) : 0.223
Размер потока : 9,07 Гбайт (69%)
Язык : English
Default : Нет
Forced : Нет
Цветовой диапазон : Limited
Основные цвета : BT.709
Характеристики трансфера : BT.709
Коэффициенты матрицы : BT.709

Аудио #1
Идентификатор : 2
Формат : AC-3
Формат/Информация : Audio Coding 3
Расширение режима : CM (complete main)
Параметр Endianness формата : Big
Идентификатор кодека : A_AC3
Продолжительность : 1 ч. 57 м.
Вид битрейта : Постоянный
Битрейт : 448 Кбит/сек
Каналы : 6 каналов
Расположение каналов : Front: L C R, Side: L R, LFE
Частота : 48,0 КГц
Частота кадров : 31,250 кадров/сек (1536 spf)
Метод сжатия : С потерями
Размер потока : 375 Мбайт (3%)
Заголовок : Дубляж CPIG
Язык : Russian
Default : Нет
Forced : Нет

Аудио #2
Идентификатор : 3
Формат : AC-3
Формат/Информация : Audio Coding 3
Расширение режима : CM (complete main)
Параметр Endianness формата : Big
Идентификатор кодека : A_AC3
Продолжительность : 1 ч. 57 м.
Вид битрейта : Постоянный
Битрейт : 384 Кбит/сек
Каналы : 6 каналов
Расположение каналов : Front: L C R, Side: L R, LFE
Частота : 48,0 КГц
Частота кадров : 31,250 кадров/сек (1536 spf)
Метод сжатия : С потерями
Размер потока : 322 Мбайт (2%)
Заголовок : MVO R1
Язык : Russian
Default : Нет
Forced : Нет

Аудио #3
Идентификатор : 4
Формат : AC-3
Формат/Информация : Audio Coding 3
Расширение режима : CM (complete main)
Параметр Endianness формата : Big
Идентификатор кодека : A_AC3
Продолжительность : 1 ч. 57 м.
Вид битрейта : Постоянный
Битрейт : 640 Кбит/сек
Каналы : 6 каналов
Расположение каналов : Front: L C R, Side: L R, LFE
Частота : 48,0 КГц
Частота кадров : 31,250 кадров/сек (1536 spf)
Метод сжатия : С потерями
Размер потока : 536 Мбайт (4%)
Заголовок : AVO Гаврилов Андрей Юрьевич
Язык : Russian
Default : Нет
Forced : Нет

Аудио #4
Идентификатор : 5
Формат : AC-3
Формат/Информация : Audio Coding 3
Расширение режима : CM (complete main)
Параметр Endianness формата : Big
Идентификатор кодека : A_AC3
Продолжительность : 1 ч. 57 м.
Вид битрейта : Постоянный
Битрейт : 640 Кбит/сек
Каналы : 6 каналов
Расположение каналов : Front: L C R, Side: L R, LFE
Частота : 48,0 КГц
Частота кадров : 31,250 кадров/сек (1536 spf)
Метод сжатия : С потерями
Размер потока : 536 Мбайт (4%)
Заголовок : AVO Живов Юрий Викторович
Язык : Russian
Default : Нет
Forced : Нет

Аудио #5
Идентификатор : 6
Формат : AC-3
Формат/Информация : Audio Coding 3
Расширение режима : CM (complete main)
Параметр Endianness формата : Big
Идентификатор кодека : A_AC3
Продолжительность : 1 ч. 57 м.
Вид битрейта : Постоянный
Битрейт : 640 Кбит/сек
Каналы : 6 каналов
Расположение каналов : Front: L C R, Side: L R, LFE
Частота : 48,0 КГц
Частота кадров : 31,250 кадров/сек (1536 spf)
Метод сжатия : С потерями
Размер потока : 536 Мбайт (4%)
Заголовок : AVO Горчаков Василий Овидиевич
Язык : Russian
Default : Нет
Forced : Нет

Аудио #6
Идентификатор : 7
Формат : AC-3
Формат/Информация : Audio Coding 3
Расширение режима : CM (complete main)
Параметр Endianness формата : Big
Идентификатор кодека : A_AC3
Продолжительность : 1 ч. 57 м.
Вид битрейта : Постоянный
Битрейт : 640 Кбит/сек
Каналы : 6 каналов
Расположение каналов : Front: L C R, Side: L R, LFE
Частота : 48,0 КГц
Частота кадров : 31,250 кадров/сек (1536 spf)
Метод сжатия : С потерями
Размер потока : 536 Мбайт (4%)
Заголовок : AVO Рудой Евгений
Язык : Russian
Default : Нет
Forced : Нет

Аудио #7
Идентификатор : 8
Формат : AC-3
Формат/Информация : Audio Coding 3
Расширение режима : CM (complete main)
Параметр Endianness формата : Big
Идентификатор кодека : A_AC3
Продолжительность : 1 ч. 57 м.
Вид битрейта : Постоянный
Битрейт : 640 Кбит/сек
Каналы : 6 каналов
Расположение каналов : Front: L C R, Side: L R, LFE
Частота : 48,0 КГц
Частота кадров : 31,250 кадров/сек (1536 spf)
Метод сжатия : С потерями
Размер потока : 536 Мбайт (4%)
Заголовок : AVO Есарев Дмитрий
Язык : Russian
Default : Нет
Forced : Нет

Аудио #8
Идентификатор : 9
Формат : AC-3
Формат/Информация : Audio Coding 3
Расширение режима : CM (complete main)
Параметр Endianness формата : Big
Идентификатор кодека : A_AC3
Продолжительность : 1 ч. 57 м.
Вид битрейта : Постоянный
Битрейт : 640 Кбит/сек
Каналы : 6 каналов
Расположение каналов : Front: L C R, Side: L R, LFE
Частота : 48,0 КГц
Частота кадров : 31,250 кадров/сек (1536 spf)
Метод сжатия : С потерями
Размер потока : 536 Мбайт (4%)
Язык : English
Default : Нет
Forced : Нет

Текст #1
Идентификатор : 10
Формат : UTF-8
Идентификатор кодека : S_TEXT/UTF8
Идентификатор кодека/Информация : UTF-8 Plain Text
Заголовок : Forced
Язык : Russian
Default : Нет
Forced : Нет

Текст #2
Идентификатор : 11
Формат : UTF-8
Идентификатор кодека : S_TEXT/UTF8
Идентификатор кодека/Информация : UTF-8 Plain Text
Язык : Russian
Default : Нет
Forced : Нет

Текст #3
Идентификатор : 12
Формат : UTF-8
Идентификатор кодека : S_TEXT/UTF8
Идентификатор кодека/Информация : UTF-8 Plain Text
Язык : English
Default : Нет
Forced : Нет

Текст #4
Идентификатор : 13
Формат : UTF-8
Идентификатор кодека : S_TEXT/UTF8
Идентификатор кодека/Информация : UTF-8 Plain Text
Заголовок : SDH
Язык : English
Default : Нет
Forced : Нет




Скачать Проклятый путь через торрент http://i89.fastpic.ru/big/2018/1009/e2/2780109a5edb094f6d985b366d0683e2.png Скачать, смотреть онлайн Проклятый путь бесплантно в хорошем качестве Описание: Внешне вполне среднестатистический американец Майкл Салливан живёт жизнью нормального гражданина 30-х годов XX века. Он хороший ... 10 10 5
Торрент: Зарегистрирован [2020-01-26 17:24] · скачан: 125 раз
Статус: √ проверено
Размер: 13.15 GB
Как cкачать? Как скачать Проклятый путь через торрент | UTorrent

28-11-2019 20:33  


Отключить вcю реклaмy на сайте, в т.ч. и в плеере онлайн просмотра!

26-01-2020 17:36 Проклятый путь Скачать торрент  

Обосранная дорога... )))



    Дорогой пользователь! Огромная просьба, поблагодарите релизера, оцените раздачу и оставьте свои комментарий, если Вы скачали Проклятый путь через торрент бесплатно!!
    Комментировать посты могут только пользователи прошедшие не сложную регистрацию
    Показать сообщения:    


    Проклятый путь через торрент
    Скачать бесплатно Проклятый путь
    Проклятый путь скачать торрент
    Проклятый путь смотреть онлайн
    Cкачать фильм Проклятый путь бесплатно
    Проклятый путь скачать торрент в хорошем качестве
    Проклятый путь смотреть онлайн бесплатно в хорошем качестве
    Вы не можете начинать темы
    Вы не можете отвечать на сообщения
    Вы не можете редактировать свои сообщения
    Вы не можете удалять свои сообщения
    Вы не можете голосовать в опросах
    Вы не можете прикреплять файлы к сообщениям
    Вы можете скачивать файлы
    Проклятый путь / Road to Perdition [2002, Триллер, драма, криминал, WEB-DL 1080p, ] Дубляж+MVO+5xAVO смотреть онлайн, скачать торрент picoco.icu