Ссылка на приватное зеркало нашего сайта всего за 1$. Внимание количество ограничено!!!

2 сезон

iTunes

1 сезон

1

2 сезон

2 сезон

iTunes

1 сезон

RePack

30

Ultimate

ВАЖНО

ИГРА 18+

pack

RePack

MK11
pack

Забери бонус

RePack

jed

!!Акция!!

Alien_Rage

RePack

fifa19

RePack

Assassins Creed: Odyssey

RePack

NEED FOR SPEED™ PAYBACK

4 сезон

9 сезон

Бесстыжие 9 сезон

Все сериалы

все сериалы на PB.wtf

RePack

FAR CRY 5
  

7 историй от Эфирии / 7 from Etheria (Хайди Ли Дуглас, Аранча Эчеваррия, Марта Годдар) [2017, Ужасы, WEB-DL 1080p] MVO - ExKinoRay pb.wtf

7 историй от Эфирии через торрент pb.wtf

Раздают: 2 [ 0 KB/s ]
Размер: 3.53 GB | Добавлен: 9 мес. назад | Торрент скачан:107 раз
Скачать  

27-01-2020 02:47 7 историй от Эфирии Скачать торрент  

Название: 7 историй от Эфирии
Оригинальное название: 7 from Etheria
Год выпуска: 2017
Жанр: Ужасы
Режиссер: Хайди Ли Дуглас, Аранча Эчеваррия, Марта Годдар
В ролях: Элизабет Дебики, Хавьер Годино, Дэвид Джеймс, Энн Рэмси, Неджарра Таунсенд, Лови Андервуд

Описание: Эфирия - самая уважаемая в мире площадка для лучших новых фильмов ужасов, комедии, научной фантастики, фэнтези, боевика и триллера, созданных новыми женщинами-режиссерами. В этом фильм представлены семь короткометражных историй разного жанра.

rating

Выпущено: США
Продолжительность: 01:35:14
Перевод: Профессиональный многоголосый

Формат: MKV
Качество: WEB-DL 1080p
Видео: MPEG-4 AVC, 1920x820 (2.35:1), 24.000 fps, 5004 Kbps, 0.132 bit/pixel
Аудио : 48 kHz, AC3, 2.0, 192 Kbps | RUS |
General
Unique ID : 250217462708560234669761100712856468194 (0xBC3E2162266B36D3A4EE11861AAF3AE2)
Complete name : F:\7.from.Etheria.2017.WEB-DL.1080p.ExKinoRay.mkv
Format : Matroska
Format version : Version 2
File size : 3.53 GiB
Duration : 1 h 35 min
Overall bit rate : 5 301 kb/s
Encoded date : UTC 2020-01-19 23:23:36
Writing application : mkvmerge v5.8.0 ('No Sleep / Pillow') built on Sep 2 2012 15:37:04
Writing library : libebml v1.2.3 + libmatroska v1.3.0

Video
ID : 1
Format : AVC
Format/Info : Advanced Video Codec
Format profile : High@L4
Format settings, CABAC : Yes
Format settings, ReFrames : 4 frames
Codec ID : V_MPEG4/ISO/AVC
Duration : 1 h 35 min
Bit rate : 5 004 kb/s
Width : 1 920 pixels
Height : 820 pixels
Display aspect ratio : 2.35:1
Frame rate mode : Constant
Frame rate : 24.000 FPS
Color space : YUV
Chroma subsampling : 4:2:0
Bit depth : 8 bits
Scan type : Progressive
Bits/(Pixel*Frame) : 0.132
Stream size : 3.33 GiB (94%)
Language : English
Default : Yes
Forced : No

Audio
ID : 2
Format : AC-3
Format/Info : Audio Coding 3
Mode extension : CM (complete main)
Format settings, Endianness : Big
Codec ID : A_AC3
Duration : 1 h 35 min
Bit rate mode : Constant
Bit rate : 192 kb/s
Channel(s) : 2 channels
Channel positions : Front: L R
Sampling rate : 48.0 kHz
Frame rate : 31.250 FPS (1536 spf)
Compression mode : Lossy
Stream size : 131 MiB (4%)
Language : Russian
Default : Yes
Forced : No


Релиз от:

Автор релиза: pb.wtf



Скачать 7 историй от Эфирии через торрент https://b.radikal.ru/b01/2001/fd/4b12686f6dbf.jpg Скачать фильм 7 историй от Эфирии через торрент бесплантно в хорошем качестве Описание: Эфирия - самая уважаемая в мире площадка для лучших новых фильмов ужасов, комедии, научной фантастики, фэнтези, боевика и ... 10 10 3
Info! Золотая раздача, скачанное не засчитывается.
Торрент: Зарегистрирован [2020-01-27 02:47] · скачан: 107 раз
Статус: √ проверено
Размер: 3.53 GB
Как cкачать? Как скачать 7 историй от Эфирии через торрент | qTorrent

28-11-2019 20:33  

Отключить всю рекламу на сайте

    Дорогой пользователь! Огромная просьба, поблагодарите релизера, оцените раздачу и оставьте свои комментарий, если Вы скачали 7 историй от Эфирии через торрент бесплатно! Внесите свою лепту в развитие PiratBit!
    Комментировать посты могут только пользователи прошедшие не сложную регистрацию
    Показать сообщения:    

    7 историй от Эфирии через торрент
    Скачать бесплатно 7 историй от Эфирии
    7 историй от Эфирии скачать торрент
    7 историй от Эфирии смотреть онлайн
    Cкачать фильм 7 историй от Эфирии бесплатно
    7 историй от Эфирии скачать торрент в хорошем качестве
    7 историй от Эфирии смотреть онлайн бесплатно в хорошем качестве


    Вы не можете начинать темы
    Вы не можете отвечать на сообщения
    Вы не можете редактировать свои сообщения
    Вы не можете удалять свои сообщения
    Вы не можете голосовать в опросах
    Вы не можете прикреплять файлы к сообщениям
    Вы можете скачивать файлы