Ссылка на приватное зеркало нашего сайта всего за 1$. Внимание количество ограничено!!!

2 сезон

iTunes

1 сезон

1

iTunes

iTunes

iTunes

1 сезон

RePack

30

ИГРА 18+

pack

ВАЖНО

!!Акция!!

Alien_RageХит недели

RePack

MK11
pack

Забери бонус

RePack

jed

!!Акция!!

Alien_Rage

RePack

fifa19

RePack

Assassins Creed: Odyssey

RePack

NEED FOR SPEED™ PAYBACK

4 сезон

9 сезон

Бесстыжие 9 сезон

Все сериалы

все сериалы на PB.wtf

RePack

FAR CRY 5
  

Телохранитель / Серии: 1-4 из 4 (Александр Калугин) [2014, Боевик, криминал, мелодрама, HDTVRip 720p] pb.wtf

Телохранитель через торрент pb.wtf

Размер: 7.38 GB | Добавлен: 8 мес. назад | Торрент скачан:24 раза
Скачать  

27-01-2020 05:39 Телохранитель Скачать торрент  

Телохранитель
Год выпуска: 2014
Страна: Россия
Жанр: Боевик, криминал, мелодрама
Продолжительность: ~ 00:45:00
Перевод: не требуется
Субтитры: отсутствуют

Режиссер: Александр Калугин



В ролях: Евгений Сидихин, Олег Гущин, Любовь Соколинская, Дмитрий Мазуров, Дмитрий Проданов, Николай Качура, Константин Адаев, Максим Башкин, Дмитрий Варшавский, Юрий Осипов, Борис Эстрин

Описание: Жизнь Александра Соколова, в прошлом - олимпийского чемпиона по боксу, пошла под откос после трагической гибели жены и 15-летней дочери в автокатастрофе, произошедшей по его вине. Александр устроился озеленителем на кладбище, где похоронены его жена и дочь. Там его находит Олег Морозов, в прошлом тоже боксер, а теперь крупный бизнесмен и ресторатор, помнит кумира своей молодости и приглашает его на работу в свой ресторан швейцаром. Вскоре из Лондона приезжает 20-летняя дочь Морозова Настя, а у него самого начинаются серьезные проблемы. После долгих скитаний по лагерям в Москву возвращается его бывший компаньон из лихих 90-х, Коля Подольский, и требует половину уже серьезного бизнеса. За отказ он организует на Морозова с дочерью покушение, и только вмешательство Соколова спасает Настю. Так Александр становится ее телохранителем и постепенно искренне привязывается к ней. Но беда не заставляет себя ждать: Морозова вновь пытаются убить, а Настю похищают...

Качество: HDTVRip 720p
Формат: MKV

Видео: 1280х720 (16:9), 25 fps, AVC MPEG-4 (x264), High@L4.1 ~ 5900 Kbps avg, 0.248 bit/pixel
Аудио: 48.0 kHz, AC3 Dolby Digital, 2/0 (L,R) ch, ~ 192 kbps
скриншот  скриншот  скриншот  скриншот  

Общее
Уникальный идентификатор : 238513163890066125762727742874328761451 (0xB36FF6E5F9A1943EAADA97BA9DF8046B)
Полное имя : C:\Telohranitel.2014.HDTVRip.(720p).MediaClub\Telohranitel.(01.seriya.iz.04).2014.HDTVRip.(720p).MediaClub.mkv
Формат : Matroska
Версия формата : Version 2
Размер файла : 1,85 Гбайт
Продолжительность : 44 м. 46 с.
Общий поток : 5902 Кбит/сек
Дата кодирования : UTC 2015-05-10 18:56:42
Программа кодирования : mkvmerge v7.8.0 ('River Man') 32bit built on Apr 3 2015 12:11:22
Библиотека кодирования : libebml v1.3.1 + libmatroska v1.4.2

Видео
Идентификатор : 1
Формат : AVC
Формат/Информация : Advanced Video Codec
Профиль формата : High@L4.1
Настройки формата : CABAC / 8 Ref Frames
Параметр CABAC формата : Да
Параметр RefFrames формата : 8 кадров
Идентификатор кодека : V_MPEG4/ISO/AVC
Продолжительность : 44 м. 46 с.
Битрейт : 5814 Кбит/сек
Ширина : 1280 пикселей
Высота : 720 пикселей
Соотношение сторон : 16:9
Режим частоты кадров : Постоянный
Частота кадров : 25,000 кадров/сек
Цветовое пространство : YUV
Субдискретизация насыщенности : 4:2:0
Битовая глубина : 8 бит
Тип развёртки : Прогрессивная
Бит/(Пиксели*Кадры) : 0.248
Размер потока : 1,75 Гбайт (95%)
Библиотека кодирования : x264 core 146 r2538 121396c
Настройки программы : cabac=1 / ref=8 / deblock=1:-3:-3 / analyse=0x3:0x113 / me=umh / subme=11 / psy=1 / psy_rd=1.00:0.20 / mixed_ref=1 / me_range=32 / chroma_me=1 / trellis=2 / 8x8dct=1 / cqm=0 / deadzone=21,11 / fast_pskip=0 / chroma_qp_offset=-3 / threads=12 / lookahead_threads=3 / sliced_threads=0 / nr=0 / decimate=0 / interlaced=0 / bluray_compat=0 / constrained_intra=0 / bframes=12 / b_pyramid=2 / b_adapt=2 / b_bias=0 / direct=3 / weightb=1 / open_gop=0 / weightp=2 / keyint=250 / keyint_min=25 / scenecut=40 / intra_refresh=0 / rc_lookahead=60 / rc=2pass / mbtree=0 / bitrate=5714 / ratetol=1.0 / qcomp=0.60 / qpmin=0 / qpmax=69 / qpstep=4 / cplxblur=20.0 / qblur=0.5 / vbv_maxrate=14000 / vbv_bufsize=14000 / nal_hrd=none / filler=0 / ip_ratio=1.40 / pb_ratio=1.30 / aq=3:0.80
Default : Да
Forced : Нет

Аудио
Идентификатор : 2
Формат : AC-3
Формат/Информация : Audio Coding 3
Коммерческое название : Dolby Digital
Идентификатор кодека : A_AC3
Продолжительность : 44 м. 46 с.
Вид битрейта : Постоянный
Битрейт : 192 Кбит/сек
Каналы : 2 канала
ChannelLayout : L R
Частота : 48,0 КГц
Частота кадров : 31,250 кадров/сек (1536 SPF)
Битовая глубина : 16 бит
Метод сжатия : С потерями
Размер потока : 61,5 Мбайт (3%)
ServiceKind/String : Complete Main
Default : Да
Forced : Нет

pb.wtf



Скачать Телохранитель через торрент http://i66.fastpic.ru/big/2014/1025/b5/0069b6a8404f9248490116d35902a0b5.jpg Скачать фильм Телохранитель через торрент бесплантно в хорошем качестве Описание: Жизнь Александра Соколова, в прошлом - олимпийского чемпиона по боксу, пошла под откос после трагической гибели жены и 15-летней ... 10 10 4
Торрент: Зарегистрирован [2020-01-27 05:39] · скачан: 24 раз
Статус: √ проверено
Размер: 7.38 GB
Как cкачать? Как скачать Телохранитель через торрент | qTorrent

% Раздел Тема Автор DL S | L
Наши сериалы [ 2.74 GB ] Телохранитель / Серии: 1-4 из 4 [2014 HDTVRip-AVC] bober100 Скачать
1 | 0
Наши сериалы [ 10.68 GB ] Телохранитель / Серии: 1-4 из 4 [2014 HDTV 1080i] bober100 Скачать
1 | 0
Наши сериалы [ 7.76 GB ] Я телохранитель [2008-2009 DVDRip] vladikula Скачать
1 | 0

28-11-2019 20:33  

Отключить всю рекламу на сайте

    Дорогой пользователь! Огромная просьба, поблагодарите релизера, оцените раздачу и оставьте свои комментарий, если Вы скачали Телохранитель через торрент бесплатно! Внесите свою лепту в развитие PiratBit!
    Комментировать посты могут только пользователи прошедшие не сложную регистрацию
    Показать сообщения:    

    Телохранитель через торрент
    Скачать бесплатно Телохранитель
    Телохранитель скачать торрент
    Телохранитель смотреть онлайн
    Cкачать фильм Телохранитель бесплатно
    Телохранитель скачать торрент в хорошем качестве
    Телохранитель смотреть онлайн бесплатно в хорошем качестве


    Вы не можете начинать темы
    Вы не можете отвечать на сообщения
    Вы не можете редактировать свои сообщения
    Вы не можете удалять свои сообщения
    Вы не можете голосовать в опросах
    Вы не можете прикреплять файлы к сообщениям
    Вы можете скачивать файлы