2 сезон

iTunes

MVO

1

2 сезон

iTunes

iTunes

1 сезон

RePack

30

Ultimate

ВАЖНО

ИГРА 18+

pack

RePack

MK11
pack

Легкие деньги

RePack

jed

RePack

fifa19

RePack

RDR2

RePack

NEED FOR SPEED™ PAYBACK

4 сезон

9 сезон

Бесстыжие 9 сезон

Все сериалы

все сериалы на PB.wtf

RePack

FAR CRY 5

Anonymous, добрый вечер, мы не успеваем собрать деньги на оплату серверов за декабрь и январь, помогите нам пожалуйста в это трудное время. В качестве благодарности мы отключим Вам всю рекламу на сайте (укажите свой ник в строку Ваше имя)!

×
  
Magnet ссылка

НЕидеальный мужчина (Марюс Вайсберг) [2020, комедия, фантастика, мелодрама, WEB-DL 1080p] [iTunes] pb.wtf

НЕидеальный мужчина через торрент pb.wtf

Раздают: 3 [ 0 KB/s ]
Размер: 3.11 GB | Добавлен: 10 мес. назад | Торрент скачан:805 раз
Скачать  

27-01-2020 10:30 НЕидеальный мужчина Скачать торрент  

(НЕ)идеальный мужчина
Год выпуска: 2020
Страна: Россия
Жанр: комедия, фантастика, мелодрама
Продолжительность: 01:28:00
Перевод: Не требуется | iTunes
Субтитры: отсутствуют

Режиссер: Марюс Вайсберг

rating

В ролях: Егор Крид, Юлия Александрова, Артем Сучков, Роман Курцын, Максим Лагашкин, Яна Кошкина, Валерия Старченкова, Юлиана Богомолова, Вера Островская, Александра Легацкая

Описание: Свете не везет с отношениями: она вечно подстраивается под парней, унижается и терпит измены. После расставания с очередным непутевым бойфрендом девушка идет работать в компанию по продаже роботов. Те уже стали частью обычной жизни, их не отличить от людей, но не в пример своим создателям роботы чутко реагируют на характер человека, его потребности, привычки и слабости. Когда у одного из роботов обнаруживается программный сбой и его хотят вернуть производителю, Света упрашивает продать его ей, так как... влюбляется в него, приняв технический дефект за проявление личности. Более того, Света хочет связать свою жизнь с чутким, внимательным и заботливым роботом, и это приводит к самым неожиданным последствиям...

Качество: WEB-DL 1080p
Формат: MKV

Видео: MPEG-4 AVC, 4675 Kb/s, 1920x806, 25.000 fps
Аудио: 48 kHz, AC3, 5.1, 384 Kbps | iTunes | RUS |
скриншот  скриншот  скриншот  скриншот  

General
Unique ID: 229708210628713643385564904799404370839 (0xACD0312F927F4101A41CC077FEAD2B97)
Complete name: NEidealnyiy.muzhchina.2020.WEB-DL.1080p.ELEKTRI4KA.UNIONGANG.mkv
Format: Matroska
Format version: Version 4 / Version 2
File size: 3.11 GiB
Duration: 1 h 28 min
Overall bit rate: 5 061 kb/s
Movie name: ELEKTRI4KA.UNIONGANG
Encoded date: UTC 2020-03-01 19:21:11
Writing application: mkvmerge v8.3.0 ('Over the Horizon') 64bit
Writing library: libebml v1.3.1 + libmatroska v1.4.2

Video
ID: 1
Format: AVC
Format/Info: Advanced Video Codec
Format profile: High@L4
Format settings, CABAC: Yes
Format settings, ReFrames: 5 frames
Codec ID: V_MPEG4/ISO/AVC
Duration: 1 h 28 min
Bit rate: 4 675 kb/s
Width: 1 920 pixels
Height: 806 pixels
Display aspect ratio: 2.40:1
Frame rate mode: Constant
Frame rate: 25.000 FPS
Color space: YUV
Chroma subsampling: 4:2:0
Bit depth: 8 bits
Scan type: Progressive
Bits/(Pixel*Frame): 0.121
Stream size: 2.87 GiB (92%)
Language: English
Default: Yes
Forced: No
Color range: Limited
Color primaries: BT.709
Transfer characteristics: BT.709
Matrix coefficients: BT.709

Audio
ID: 2
Format: AC-3
Format/Info: Audio Coding 3
Mode extension: CM (complete main)
Format settings, Endianness: Big
Codec ID: A_AC3
Duration: 1 h 28 min
Bit rate mode: Constant
Bit rate: 384 kb/s
Channel(s): 6 channels
Channel positions: Front: L C R, Side: L R, LFE
Sampling rate: 48.0 kHz
Frame rate: 31.250 FPS (1536 spf)
Bit depth: 16 bits
Compression mode: Lossy
Stream size: 242 MiB (8%)
Title: iTunes
Language: Russian
Default: Yes
Forced: No

Menu
00:00:00.000: en:?????????? 1
00:06:53.280: en:?????????? 2
00:14:47.040: en:?????????? 3
00:20:15.040: en:?????????? 4
00:26:21.159: en:?????????? 5
00:33:22.559: en:?????????? 6
00:39:21.999: en:?????????? 7
00:46:59.558: en:?????????? 8
00:54:24.117: en:?????????? 9
00:58:59.477: en:?????????? 10
01:06:41.877: en:?????????? 11
01:11:57.757: en:?????????? 12
01:19:45.796: en:?????????? 13

pb.wtf



Скачать НЕидеальный мужчина через торрент https://c.radikal.ru/c21/2003/86/1f09f0f8344f.png Скачать фильм НЕидеальный мужчина через торрент бесплантно в хорошем качестве Описание: Свете не везет с отношениями: она вечно подстраивается под парней, унижается и терпит измены. После расставания с очередным ... 9.3 10 23
Info! Золотая раздача, скачанное не засчитывается.
Торрент: Зарегистрирован [2020-03-01 19:34] · скачан: 805 раз
Статус: √ проверено
Размер: 3.11 GB
Как cкачать? Как скачать НЕидеальный мужчина через торрент | UTorrent

% Раздел Тема Автор DL S | L
Наши новые фильмы 2018-2019 [ 1.46 GB ] НЕидеальный мужчина [2020 WEB-DLRip] bober100 Скачать
3 | 0
Наши новые фильмы 2018-2019 [ 1.46 GB ] НЕидеальный мужчина [2020 WEB-DLRip-AVC] bober100 Скачать
4 | 0
Наши новые фильмы 2018-2019 [ 740 MB ] НЕидеальный мужчина [2020 WEB-DLRip] bober100 Скачать
1 | 0
Наши фильмы (HD, WEB-DL 720p, 1080p) [ 2.72 GB ] НЕидеальный мужчина [2020 WEB-DL 720p] bober100 Скачать
3 | 0


Последний раз редактировалось: bober100 (2020-03-01 19:39), всего редактировалось 2 раз(а)

28-11-2019 20:33  

Отключить всю рекламу на сайте

    Дорогой пользователь! Огромная просьба, поблагодарите релизера, оцените раздачу и оставьте свои комментарий, если Вы скачали НЕидеальный мужчина через торрент бесплатно! Внесите свою лепту в развитие PiratBit!
    Комментировать посты могут только пользователи прошедшие не сложную регистрацию
    Показать сообщения:    

    НЕидеальный мужчина через торрент
    Скачать бесплатно НЕидеальный мужчина
    НЕидеальный мужчина скачать торрент
    НЕидеальный мужчина смотреть онлайн
    Cкачать фильм НЕидеальный мужчина бесплатно
    НЕидеальный мужчина скачать торрент в хорошем качестве
    НЕидеальный мужчина смотреть онлайн бесплатно в хорошем качестве


    Вы не можете начинать темы
    Вы не можете отвечать на сообщения
    Вы не можете редактировать свои сообщения
    Вы не можете удалять свои сообщения
    Вы не можете голосовать в опросах
    Вы не можете прикреплять файлы к сообщениям
    Вы можете скачивать файлы