Ссылка на приватное зеркало нашего сайта всего за 1$. Внимание количество ограничено!!!

2 сезон

iTunes

1 сезон

1

2 сезон

2 сезон

iTunes

1 сезон

RePack

30

Ultimate

ВАЖНО

ИГРА 18+

pack

RePack

MK11
pack

Забери бонус

RePack

jed

!!Акция!!

Alien_Rage

RePack

fifa19

RePack

Assassins Creed: Odyssey

RePack

NEED FOR SPEED™ PAYBACK

4 сезон

9 сезон

Бесстыжие 9 сезон

Все сериалы

все сериалы на PB.wtf

RePack

FAR CRY 5
  

Медицинская полиция / Medical Police / Сезон: 1 / Серии: 1-10 из 10 (Франни Болдуин, Триш Хэдли, Кристер Джонсон) [2020, Комедия, WEB-DL 1080p] [MVO] (TVShows) pb.wtf

Медицинская полиция через торрент pb.wtf

Размер: 9.19 GB | Добавлен: 10 мес. назад | Торрент скачан:15 раз
Скачать  

27-01-2020 10:49 Медицинская полиция Скачать торрент  

Медицинская полиция / Medical Police
Год выпуска: 2020
Страна: США
Жанр: Комедия
Продолжительность: ~00:23:00
Перевод: Профессиональный (многоголосый закадровый) TVShows
Режиссёр: Франни Болдуин, Триш Хэдли, Кристер Джонсон

В ролях: Эрик Неннингер, Том Райт, Лэйк Белл, Фред Меламед, Роб Хюбель
Описание: Профессиональные врачи открыли смертельный вирус. Правительство завербовало их как оперативников и поставило задачу найти противоядие. Деятельность агентов-врачей приводит к роковым и одновременно комическим ситуациям.
rating
Сэмпл: http://multi-up.com/1252842
Качество: WEB-DL 1080p
Контейнер: MKV
Видео: MPEG-4 AVC, 1920x1080, 23.976 fps, ~5800 kbps
Аудио 1: Русский, AC3, 48 kHz, 6 ch, 384 kbps
Аудио 2: Английский, E-AC3, 48 kHz, 6 ch, 640 kbps
Субтитры: Английские
Реклама: Отсутствует
General
Unique ID : 266903353064646994855832591927503609215 (0xC8CBB74B4817B7B003F588075FF1DD7F)
Complete name : Medical.Police.S01E01.1080p.TVShows.mkv
Format : Matroska
Format version : Version 4
File size : 1.06 GiB
Duration : 23 min 0 s
Overall bit rate mode : Variable
Overall bit rate : 6 576 kb/s
Encoded date : UTC 2020-01-27 09:22:25
Writing application : mkvmerge v33.1.0 ('Primrose') 64-bit
Writing library : libebml v1.3.7 + libmatroska v1.5.0

Video
ID : 1
Format : AVC
Format/Info : Advanced Video Codec
Format profile : Main@L4
Format settings : CABAC / 3 Ref Frames
Format settings, CABAC : Yes
Format settings, Reference frames : 3 frames
Codec ID : V_MPEG4/ISO/AVC
Duration : 22 min 59 s
Bit rate mode : Variable
Bit rate : 5 800 kb/s
Maximum bit rate : 8 700 kb/s
Width : 1 920 pixels
Height : 1 080 pixels
Display aspect ratio : 16:9
Frame rate mode : Constant
Frame rate : 23.976 (24000/1001) FPS
Color space : YUV
Chroma subsampling : 4:2:0
Bit depth : 8 bits
Scan type : Progressive
Bits/(Pixel*Frame) : 0.117
Stream size : 913 MiB (84%)
Writing library : x264 core 148 r2715 7e75228
Encoding settings : cabac=1 / ref=3 / deblock=1:0:0 / analyse=0x1:0x111 / me=umh / subme=10 / psy=1 / psy_rd=1.00:0.00 / mixed_ref=1 / me_range=24 / chroma_me=1 / trellis=2 / 8x8dct=0 / cqm=0 / deadzone=21,11 / fast_pskip=1 / chroma_qp_offset=-2 / threads=8 / lookahead_threads=1 / sliced_threads=0 / nr=0 / decimate=1 / interlaced=0 / bluray_compat=0 / stitchable=1 / constrained_intra=0 / bframes=2 / b_pyramid=0 / b_adapt=2 / b_bias=0 / direct=3 / weightb=1 / open_gop=0 / weightp=2 / keyint=250 / keyint_min=23 / scenecut=0 / intra_refresh=0 / rc_lookahead=48 / rc=2pass / mbtree=1 / bitrate=5800 / ratetol=1.0 / qcomp=0.50 / qpmin=6 / qpmax=51 / qpstep=4 / cplxblur=20.0 / qblur=0.5 / vbv_maxrate=8700 / vbv_bufsize=11600 / nal_hrd=vbr / filler=0 / ip_ratio=1.40 / aq=1:1.00
Default : Yes
Forced : No

Audio #1
ID : 2
Format : AC-3
Format/Info : Audio Coding 3
Commercial name : Dolby Digital
Codec ID : A_AC3
Duration : 23 min 0 s
Bit rate mode : Constant
Bit rate : 384 kb/s
Channel(s) : 6 channels
Channel layout : L R C LFE Ls Rs
Sampling rate : 48.0 kHz
Frame rate : 31.250 FPS (1536 SPF)
Compression mode : Lossy
Stream size : 63.2 MiB (6%)
Title : TVShows
Language : Russian
Service kind : Complete Main
Default : Yes
Forced : Yes

Audio #2
ID : 3
Format : E-AC-3
Format/Info : Enhanced AC-3
Commercial name : Dolby Digital Plus
Codec ID : A_EAC3
Duration : 23 min 0 s
Bit rate mode : Constant
Bit rate : 640 kb/s
Channel(s) : 6 channels
Channel layout : L R C LFE Ls Rs
Sampling rate : 48.0 kHz
Frame rate : 31.250 FPS (1536 SPF)
Compression mode : Lossy
Stream size : 105 MiB (10%)
Title : Original
Language : English
Service kind : Complete Main
Default : No
Forced : No

Text
ID : 4
Format : UTF-8
Codec ID : S_TEXT/UTF8
Codec ID/Info : UTF-8 Plain Text
Duration : 20 min 47 s
Bit rate : 95 b/s
Count of elements : 429
Stream size : 14.5 KiB (0%)
Title : English
Language : English
Default : No
Forced : No
скриншот  скриншот  скриншот  
pb.wtf



Скачать Медицинская полиция через торрент https://b.radikal.ru/b35/2001/61/890432bfe7c8.jpg Скачать фильм Медицинская полиция через торрент бесплантно в хорошем качестве Описание: Профессиональные врачи открыли смертельный вирус. Правительство завербовало их как оперативников и поставило задачу найти ... 10 10 2
Торрент: Зарегистрирован [2020-01-27 10:49] · скачан: 15 раз
Статус: √ проверено
Размер: 9.19 GB
Как cкачать? Как скачать Медицинская полиция через торрент | qTorrent

% Раздел Тема Автор DL S | L
T Зарубежные сериалы [ 8.19 GB ] Медицинская полиция / Medical Police / Сезон: 1 / Серии: 1-10 из 10 [2020 WEBRip 720p] MVO [Octopus] bober100 Скачать
1 | 0
T Зарубежные сериалы [ 3.3 GB ] Медицинская полиция / Medical Police / Сезон: 1 / Серии: 1-10 из 10 [2020 WEBRip] MVO [Octopus] bober100 Скачать
1 | 0

28-11-2019 20:33  

Отключить всю рекламу на сайте

    Дорогой пользователь! Огромная просьба, поблагодарите релизера, оцените раздачу и оставьте свои комментарий, если Вы скачали Медицинская полиция через торрент бесплатно! Внесите свою лепту в развитие PiratBit!
    Комментировать посты могут только пользователи прошедшие не сложную регистрацию
    Показать сообщения:    

    Медицинская полиция через торрент
    Скачать бесплатно Медицинская полиция
    Медицинская полиция скачать торрент
    Медицинская полиция смотреть онлайн
    Cкачать фильм Медицинская полиция бесплатно
    Медицинская полиция скачать торрент в хорошем качестве
    Медицинская полиция смотреть онлайн бесплатно в хорошем качестве


    Вы не можете начинать темы
    Вы не можете отвечать на сообщения
    Вы не можете редактировать свои сообщения
    Вы не можете удалять свои сообщения
    Вы не можете голосовать в опросах
    Вы не можете прикреплять файлы к сообщениям
    Вы можете скачивать файлы