2 сезон

iTunes

MVO

1

2 сезон

iTunes

iTunes

1 сезон

RePack

30

Новинка

ВАЖНО

ИГРА 18+

pack

RePack

MK11
pack

Легкие деньги

RePack

jed

RePack

fifa19

RePack

RDR2

RePack

NEED FOR SPEED™ PAYBACK

4 сезон

9 сезон

Бесстыжие 9 сезон

Все сериалы

все сериалы на PB.wtf

RePack

FAR CRY 5

Anonymous, доброе утро, мы не успеваем собрать деньги на оплату серверов за декабрь и январь, помогите нам пожалуйста в это трудное время. В качестве благодарности мы отключим Вам всю рекламу на сайте (укажите свой ник в строку Ваше имя)!

×
  
Magnet ссылка

Проект засекречен / Проект "Синяя книга" / Project Blue Book / Сезон: 2 / Серия: 1-9 из 10 (Роберт Стромберг, Пит Трэвис, Норма Бэйли) [2020, фантастика, триллер, драма, детектив, WEB-DLRip] MVO [TVShows] pb.wtf

Проект засекречен через торрент pb.wtf

Размер: 6.09 GB | Добавлен: 9 мес. назад | Торрент скачан:11 раз
Скачать  

27-01-2020 11:45 Проект засекречен Скачать торрент  

Проект засекречен | Проект "Синяя книга" | Project Blue Book
Год выпуска: 2020
Страна: США, Канада
Студия: A+E Studios, History Channel
Жанр: фантастика, триллер, драма, детектив
Продолжительность: ~ 00:46:00
Перевод: Профессиональный (многоголосый) | TVShows
Субтитры: отсутствуют

Режиссер: Роберт Стромберг, Пит Трэвис, Норма Бэйли

rating

В ролях: Эйдан Гиллен, Майкл Маларки, Лаура Меннелл, Ксения Соло, Нил МакДонаф, Майкл Харни, Николас Холмс, Джилл Моррисон, Иэн Трейси, Роберт Джон Бёрк и другие.

Описание: Пятидесятые годы прошлого века. Астроном Дж. Аллен Хинек и капитан ВВС США Майкл Квинн разбираются со свидетельствами появления НЛО. В ходе расследования они натыкаются на правительственный заговор, скрывающий от населения правду.

Качество: WEB-DLRip
Формат: XviD | Avi

Видео: ~ XVID, 704x352, 23.976 fps, ~2000 kbps avg, 0.33 bit/pixel
Аудио Rus: AC3, 48.0 KHz, 2 channels, 192 kbps
скриншот  скриншот  скриншот  скриншот  скриншот  

General
Complete name : G:\Проект Синяя книга (Сезон 2) TVShows\Project.Blue.Book.S02E01.WEB-DLRip.RGzsRutracker.Celta88.avi
Format : AVI
Format/Info : Audio Video Interleave
File size : 715 MiB
Duration : 45 min 26 s
Overall bit rate : 2 201 kb/s
Writing application : VirtualDubMod 1.5.10.3 | www.virtualdub-fr.org || (build 2550/release)
Writing library : VirtualDubMod build 2550/release

Video
ID : 0
Format : MPEG-4 Visual
Format profile : Advanced Simple@L5
Format settings, BVOP : 1
Format settings, QPel : No
Format settings, GMC : No warppoints
Format settings, Matrix : Custom
Codec ID : XVID
Codec ID/Hint : XviD
Duration : 45 min 26 s
Bit rate : 1 999 kb/s
Width : 704 pixels
Height : 352 pixels
Display aspect ratio : 2.000
Frame rate : 23.976 (24000/1001) FPS
Color space : YUV
Chroma subsampling : 4:2:0
Bit depth : 8 bits
Scan type : Progressive
Compression mode : Lossy
Bits/(Pixel*Frame) : 0.337
Stream size : 650 MiB (91%)
Writing library : XviD 73

Audio
ID : 1
Format : AC-3
Format/Info : Audio Coding 3
Mode extension : CM (complete main)
Format settings, Endianness : Big
Codec ID : 2000
Duration : 45 min 26 s
Bit rate mode : Constant
Bit rate : 192 kb/s
Channel(s) : 2 channels
Channel positions : Front: L R
Sampling rate : 48.0 kHz
Frame rate : 31.250 FPS (1536 spf)
Bit depth : 16 bits
Compression mode : Lossy
Stream size : 62.4 MiB (9%)
Alignment : Split accross interleaves
Interleave, duration : 42 ms (1.00 video frame)
Interleave, preload duratio : 500 ms

Когда раздача ведётся путём добавления новых серий, при каждом добавлении создётся новый торрент. Чтобы начать докачку новой серии, пользователям необходимо сделать следующее:
(1) остановить скачивание,
(2) удалить старый торрент у себя из клиента (старые серии удалять не надо),
(3) скачать новый торрент и запустить его у себя в клиенте вместо старого, при этом указать клиенту путь в старую папку, куда и должно происходить скачивание новых серий.
Ваш клиент при этом должен произвести хеширование (проверку) старой папки (если не производит сам - помогите ему сделать это), и будет докачивать только те серии, которых у вас ещё нет. Старые серии при этом не удаляются, а продолжают раздаваться!
Eсли вы уже удалили старые серии, то предотвратить повторную закачку старых серий можно, отжав галочку в соответсвующих местах при запуске нового торрента. По возможности, желательно не удалять старые серии как можно дольше, чтобы релизёр не столько продолжал раздавать старые серии, а смог сконцентрироваться на новых.
pb.wtf



Скачать Проект засекречен через торрент https://i84.fastpic.ru/big/2019/0117/08/8c52adc5677498ea719707af9f064a08.png Скачать фильм Проект засекречен через торрент бесплантно в хорошем качестве Описание: Пятидесятые годы прошлого века. Астроном Дж. Аллен Хинек и капитан ВВС США Майкл Квинн разбираются со свидетельствами появления ... 10 10 5
Торрент: Зарегистрирован [2020-04-08 00:56] · скачан: 11 раз
Статус: √ проверено
Размер: 6.09 GB
Как cкачать? Как скачать Проект засекречен через торрент | UTorrent

28-11-2019 20:33  

Отключить всю рекламу на сайте

    Дорогой пользователь! Огромная просьба, поблагодарите релизера, оцените раздачу и оставьте свои комментарий, если Вы скачали Проект засекречен через торрент бесплатно! Внесите свою лепту в развитие PiratBit!
    Комментировать посты могут только пользователи прошедшие не сложную регистрацию
    Показать сообщения:    

    Проект засекречен через торрент
    Скачать бесплатно Проект засекречен
    Проект засекречен скачать торрент
    Проект засекречен смотреть онлайн
    Cкачать фильм Проект засекречен бесплатно
    Проект засекречен скачать торрент в хорошем качестве
    Проект засекречен смотреть онлайн бесплатно в хорошем качестве


    Вы не можете начинать темы
    Вы не можете отвечать на сообщения
    Вы не можете редактировать свои сообщения
    Вы не можете удалять свои сообщения
    Вы не можете голосовать в опросах
    Вы не можете прикреплять файлы к сообщениям
    Вы можете скачивать файлы