Ссылка на приватное зеркало нашего сайта всего за 1$. Внимание количество ограничено!!!

2 сезон

iTunes

1 сезон

1

iTunes

iTunes

iTunes

1 сезон

RePack

30

ИГРА 18+

pack

ВАЖНО

!!Акция!!

Alien_RageХит недели

RePack

MK11
pack

Забери бонус

RePack

jed

!!Акция!!

Alien_Rage

RePack

fifa19

RePack

Assassins Creed: Odyssey

RePack

NEED FOR SPEED™ PAYBACK

4 сезон

9 сезон

Бесстыжие 9 сезон

Все сериалы

все сериалы на PB.wtf

RePack

FAR CRY 5
  

Горячая точка / Сезон: 1 / Серии: 1-24 из 24 (Денис Карро) [2020, Детектив, драма, криминал, SATRip] pb.wtf

Горячая точка через торрент pb.wtf

Раздают: 1 [ 0 KB/s ]
Размер: 14.06 GB | Добавлен: 8 мес. назад | Торрент скачан:136 раз
Скачать  

27-01-2020 17:30 Горячая точка Скачать торрент  

Горячая точка
Год выпуска: 2020
Страна: Россия
Жанр: Детектив, драма, криминал
Продолжительность: ~ 00:50:00
Субтитры: отсутствуют

Режиссер: Денис Карро



В ролях: Арсений Робак, Александр Носик, Ирина Савицкова, Елена Лотова, Олег Каменщиков, Сергей Шарифуллин, Евгений Смирнов-Иваницкий, Джалил Асретов, Вера Новикова, Назир Жуков, Павел Попов, Ирина Лукина (II), Иван Моховиков, Михаил Гудошников, Олег Руденко-Травин, Андрей Колесников (II)

Описание: 2001 год. Женя Мурин возвращается в родной город после 7-летней службы по контракту. Но то, что он увидел, его не обрадовало: бывшая девушка Валя стала наркоманкой, как и большинство молодежи, а мать с отчимом, ветераном афганской войны, ведут отчаянную борьбу за лесопилку, которую стремятся захватить бандиты. Пытаясь решить проблемы семьи, Женя переходит дорогу очень опасным людям и понимает, что недостаточно будет защищать только «своих», со злом нужно бороться в масштабах города. В этой борьбе ему помогают его друзья — следователь местного отделения милиции Эдик и простой работяга на стройке Руслан. Им придется столкнуться не только с бандитами, но и с местной властью, которая находится в сговоре с криминальными авторитетами.

Качество: SATRip
Формат: AVI

Видео: XviD, ~ 1500 Кбит/с, 720x400
Аудио: MP3, 2 ch, 192 Кбит/с
скриншот  скриншот  скриншот  скриншот  

Общее
Полное имя : C:\Goryachaya.tochka.2019.XviD.SATRip.25Kuzmich\Goryachaya.tochka.e01.XviD.SATRip.25Kuzmich.avi
Формат : AVI
Формат/Информация : Audio Video Interleave
Размер файла : 600 Мбайт
Продолжительность : 50 м. 13 с.
Общий поток : 1671 Кбит/сек
Программа кодирования : VirtualDubMod 1.5.10.3 | www.virtualdub-fr.org || (build 2550/release)
Библиотека кодирования : VirtualDubMod build 2550/release

Видео
Идентификатор : 0
Формат : MPEG-4 Visual
Профиль формата : Advanced Simple@L5
Настройки формата : BVOP1
Параметр BVOP формата : 1
Параметр QPel формата : Нет
Параметр GMC формата : Без точки перехода
Параметр матрицы формата : Default (MPEG)
Идентификатор кодека : XVID
Идентификатор кодека/Подсказка : XviD
Продолжительность : 50 м. 13 с.
Битрейт : 1403 Кбит/сек
Ширина : 720 пикселей
Высота : 400 пикселей
Соотношение сторон : 16:9
Частота кадров : 25,000 кадров/сек
Цветовое пространство : YUV
Субдискретизация насыщенности : 4:2:0
Битовая глубина : 8 бит
Тип развёртки : Прогрессивная
Метод сжатия : С потерями
Бит/(Пиксели*Кадры) : 0.195
Размер потока : 504 Мбайт (84%)
Библиотека кодирования : XviD 73

Аудио
Идентификатор : 1
Формат : MPEG Audio
Версия формата : Version 1
Профиль формата : Layer 3
Настройки формата : Joint stereo / MS Stereo
Идентификатор кодека : 55
Идентификатор кодека/Подсказка : MP3
Продолжительность : 50 м. 13 с.
Вид битрейта : Постоянный
Битрейт : 192 Кбит/сек
Каналы : 2 канала
Частота : 48,0 КГц
Частота кадров : 41,667 кадра/сек (1152 SPF)
Метод сжатия : С потерями
Размер потока : 69,0 Мбайт (11%)
Выравнивание : Соединение по промежуткам
Библиотека кодирования : LAME3.99r
Настройки программы : -m j -V 4 -q 2 -lowpass 18.6 -b 192

Внимание! Раздача ведётся путём добавления новых серий; при каждом добавлении создаётся новый торрент. Чтобы начать докачку новой серии, пользователям необходимо сделать следующее:
(1) остановить скачивание,
(2) удалить старый торрент у себя из клиента (старые серии удалять не надо),
(3) скачать новый торрент и запустить его у себя в клиенте вместо старого, при этом указать клиенту путь в старую папку куда и должно происходить скачивание новых серий.

Ваш клиент при этом должен произвести хеширование (проверку) старой папки (если не производит сам - помогите ему сделать это), и будет докачивать только те серии которых у вас ещё нет. Старые серии при этом не удаляются, а продолжают раздаваться!

Eсли вы уже удалили старые серии, то предотвратить повторную закачку старых серий можно, отжав галочку в соответсвующих местах при запуске нового торрента. По возможности, желательно не удалять старые серии как можно дольше чтобы релизёр не столько продолжал раздавать старые серии, а смог сконцентрироваться на новых.
pb.wtf



Скачать Горячая точка через торрент https://i111.fastpic.ru/big/2020/0125/b0/00353335cf101965400bbf45789d6eb0.jpg Скачать фильм Горячая точка через торрент бесплантно в хорошем качестве Описание: 2001 год. Женя Мурин возвращается в родной город после 7-летней службы по контракту. Но то, что он увидел, его не обрадовало: ... 8.8 10 19
Info! Золотая раздача, скачанное не засчитывается.
Торрент: Зарегистрирован [2020-02-11 16:05] · скачан: 136 раз
Статус: √ проверено
Размер: 14.06 GB
Как cкачать? Как скачать Горячая точка через торрент | qTorrent

% Раздел Тема Автор DL S | L
Наши сериалы [ 51.01 GB ] Горячая точка / Сезон: 1 / Серии: 1-24 из 24 [2020 WEBRip 1080p] bober100 Скачать
1 | 0
Наши сериалы [ 30.64 GB ] Горячая точка / Сезон: 1 / Серии: 1-24 из 24 [2020 WEBRip 720p] bober100 Скачать
1 | 0
Наши сериалы [ 18.2 GB ] Горячая точка / Сезон: 1 / Серии: 1-24 из 24 [2020 WEBRip-AVC] bober100 Скачать
1 | 0
Наши сериалы [ 14.94 GB ] Горячая точка / Сезон: 1 / Серии: 1-24 из 24 [2020 WEBRip] bober100 Скачать
2 | 0

28-11-2019 20:33  

Отключить всю рекламу на сайте

    Дорогой пользователь! Огромная просьба, поблагодарите релизера, оцените раздачу и оставьте свои комментарий, если Вы скачали Горячая точка через торрент бесплатно! Внесите свою лепту в развитие PiratBit!
    Комментировать посты могут только пользователи прошедшие не сложную регистрацию
    Показать сообщения:    

    Горячая точка через торрент
    Скачать бесплатно Горячая точка
    Горячая точка скачать торрент
    Горячая точка смотреть онлайн
    Cкачать фильм Горячая точка бесплатно
    Горячая точка скачать торрент в хорошем качестве
    Горячая точка смотреть онлайн бесплатно в хорошем качестве


    Вы не можете начинать темы
    Вы не можете отвечать на сообщения
    Вы не можете редактировать свои сообщения
    Вы не можете удалять свои сообщения
    Вы не можете голосовать в опросах
    Вы не можете прикреплять файлы к сообщениям
    Вы можете скачивать файлы