Ссылка на приватное зеркало нашего сайта всего за 1$. Внимание количество ограничено!!!

2 сезон

iTunes

1 сезон

1

2 сезон

2 сезон

iTunes

1 сезон

RePack

30

Ultimate

ВАЖНО

ИГРА 18+

pack

RePack

MK11
pack

Забери бонус

RePack

jed

!!Акция!!

Alien_Rage

RePack

fifa19

RePack

Assassins Creed: Odyssey

RePack

NEED FOR SPEED™ PAYBACK

4 сезон

9 сезон

Бесстыжие 9 сезон

Все сериалы

все сериалы на PB.wtf

RePack

FAR CRY 5
  

Ford против Ferrari / Ford v Ferrari (Джеймс Мэнголд) [2019, биография, спорт, драма, боевик, WEB-DL 1080p] MVO [HDRezka Studio] pb.wtf

Ford против Ferrari через торрент pb.wtf

Раздают: 2 [ 0 KB/s ]
Размер: 5.73 GB | Добавлен: 9 мес. назад | Торрент скачан:574 раза
Скачать  

27-01-2020 17:45 Ford против Ferrari Скачать торрент  

Ford против Ferrari | Ford v Ferrari
Год выпуска: 2019
Страна: США, Франция
Студия: Chernin Entertainment, Twentieth Century Fo
Жанр: биография, спорт, драма, боевик
Продолжительность: 02:32:33
Перевод: Профессиональный (многоголосый) | HDRezka Studio
Субтитры: Русские (Forced, Full), английские

Режиссер: Джеймс Мэнголд

rating

В ролях: Кристиан Бэйл, Мэтт Дэймон, Катрина Балф, Трэйси Леттс, Джон Бернтал, Ноа Джуп, Джош Лукас, Ремо Джироне, Рэй Маккиннон, Джей Джей Филд

Описание: Фильм рассказывает о взаимоотношениях американского автомобильного конструктора Кэрролла Шелби и отважного британского гонщика Кена Майлза, которые вместе бросили вызов корпорациям и собственным демонам, чтобы создать абсолютно новый спорткар, который смог конкурировать с Ferrari на чемпионате мира, прошедшем во Франции в середине 1960-х.

Качество: WEB-DL 1080p
Формат: MKV

Видео: MPEG-4 AVC, 4543 Mбит/с, 1920x804, 23.976 кадр/с
Аудио #1: Русский (АС3, 6 ch, 448 Кбит/с, 48.0 KHz) Профессиональный (многоголосый, закадровый) HDRezka Studio
Аудио #2: Английский (АС3, 6 ch, 384 Кбит/с, 48.0 KHz)
скриншот  скриншот  скриншот  скриншот  скриншот  

Источник: Ford.v.Ferrari.2019.1080p.WEB-DL.DD5.1.H264-FGT
General
Unique ID : 231540946129514285212853461482391972649 (0xAE312A05C0573572A5EDACB86863AB29)
Complete name : Ford.v.Ferrari.2019.WEB-DL.1080p.mkv
Format : Matroska
Format version : Version 4
File size : 5.73 GiB
Duration : 2 h 32 min
Overall bit rate : 5 377 kb/s
Movie name : Ford.v.Ferrari.2019.1080p.WEB-DL.DD5.1.H264-FGT
Encoded date : UTC 2020-01-27 17:16:03
Writing application : mkvmerge v7.1.0 ('Good Love') 64bit built on Jul 27 2014 13:06:55
Writing library : libebml v1.3.0 + libmatroska v1.4.1

Video
ID : 1
Format : AVC
Format/Info : Advanced Video Codec
Format profile : High@L4
Format settings : CABAC / 5 Ref Frames
Format settings, CABAC : Yes
Format settings, Reference fra : 5 frames
Codec ID : V_MPEG4/ISO/AVC
Duration : 2 h 32 min
Bit rate : 4 543 kb/s
Width : 1 920 pixels
Height : 804 pixels
Display aspect ratio : 2.40:1
Frame rate mode : Constant
Frame rate : 23.976 FPS
Color space : YUV
Chroma subsampling : 4:2:0
Bit depth : 8 bits
Scan type : Progressive
Bits/(Pixel*Frame) : 0.123
Stream size : 4.84 GiB (84%)
Language : English
Default : Yes
Forced : No
Color range : Limited
Color primaries : BT.709
Transfer characteristics : BT.709
Matrix coefficients : BT.709

Audio #1
ID : 2
Format : AC-3
Format/Info : Audio Coding 3
Commercial name : Dolby Digital
Codec ID : A_AC3
Duration : 2 h 32 min
Bit rate mode : Constant
Bit rate : 448 kb/s
Channel(s) : 6 channels
Channel layout : L R C LFE Ls Rs
Sampling rate : 48.0 kHz
Frame rate : 31.250 FPS (1536 SPF)
Compression mode : Lossy
Stream size : 489 MiB (8%)
Title : MVO | HDRezka Studio
Language : Russian
Service kind : Complete Main
Default : Yes
Forced : No

Audio #2
ID : 3
Format : AC-3
Format/Info : Audio Coding 3
Commercial name : Dolby Digital
Codec ID : A_AC3
Duration : 2 h 32 min
Bit rate mode : Constant
Bit rate : 384 kb/s
Channel(s) : 6 channels
Channel layout : L R C LFE Ls Rs
Sampling rate : 48.0 kHz
Frame rate : 31.250 FPS (1536 SPF)
Compression mode : Lossy
Stream size : 419 MiB (7%)
Language : English
Service kind : Complete Main
Default : No
Forced : No

Text #1
ID : 4
Format : UTF-8
Codec ID : S_TEXT/UTF8
Codec ID/Info : UTF-8 Plain Text
Duration : 33 min 50 s
Bit rate : 3 b/s
Count of elements : 7
Stream size : 789 Bytes (0%)
Title : Forced
Language : Russian
Default : Yes
Forced : No

Text #2
ID : 5
Format : UTF-8
Codec ID : S_TEXT/UTF8
Codec ID/Info : UTF-8 Plain Text
Duration : 2 h 26 min
Bit rate : 82 b/s
Count of elements : 1652
Stream size : 87.8 KiB (0%)
Title : Full
Language : Russian
Default : No
Forced : No

Text #3
ID : 6
Format : UTF-8
Codec ID : S_TEXT/UTF8
Codec ID/Info : UTF-8 Plain Text
Duration : 2 h 24 min
Bit rate : 51 b/s
Count of elements : 1638
Stream size : 54.8 KiB (0%)
Language : English
Default : No
Forced : No

Menu
00:00:00.000 : en:Chapter 01
00:04:44.617 : en:Chapter 02
00:07:31.533 : en:Chapter 03
00:10:01.807 : en:Chapter 04
00:15:38.309 : en:Chapter 05
00:20:14.167 : en:Chapter 06
00:21:38.792 : en:Chapter 07
00:25:59.886 : en:Chapter 08
00:31:56.867 : en:Chapter 09
00:34:08.748 : en:Chapter 10
00:39:12.258 : en:Chapter 11
00:42:05.888 : en:Chapter 12
00:45:55.993 : en:Chapter 13
00:48:37.654 : en:Chapter 14
00:51:21.067 : en:Chapter 15
00:55:02.663 : en:Chapter 16
00:57:49.788 : en:Chapter 17
01:00:26.027 : en:Chapter 18
01:06:32.476 : en:Chapter 19
01:11:58.802 : en:Chapter 20
01:16:12.764 : en:Chapter 21
01:19:29.502 : en:Chapter 22
01:24:17.748 : en:Chapter 23
01:29:23.969 : en:Chapter 24
01:33:15.158 : en:Chapter 25
01:38:10.285 : en:Chapter 26
01:40:56.451 : en:Chapter 27
01:43:22.305 : en:Chapter 28
01:45:48.200 : en:Chapter 29
01:50:37.947 : en:Chapter 30
01:53:37.333 : en:Chapter 31
01:57:46.581 : en:Chapter 32
02:00:15.645 : en:Chapter 33
02:05:21.866 : en:Chapter 34
02:09:17.350 : en:Chapter 35
02:12:00.471 : en:Chapter 36
02:15:25.383 : en:Chapter 37
02:18:22.101 : en:Chapter 38
02:20:45.409 : en:Chapter 39
02:26:26.582 : en:Chapter 40

pb.wtf



Скачать Ford против Ferrari через торрент http://d.radikal.ru/d08/2001/6f/09596a08d448.jpg Скачать фильм Ford против Ferrari через торрент бесплантно в хорошем качестве Описание: Фильм рассказывает о взаимоотношениях американского автомобильного конструктора Кэрролла Шелби и отважного британского гонщика ... 10 10 16
Info! Золотая раздача, скачанное не засчитывается.
Торрент: Зарегистрирован [2020-01-27 17:45] · скачан: 574 раз
Статус: √ проверено
Размер: 5.73 GB
Как cкачать? Как скачать Ford против Ferrari через торрент | qTorrent

% Раздел Тема Автор DL S | L
Фильмы 2019-2020 [DVDrip, WEB-DLRip, HDrip] (DUB, MVO) [ 2.12 GB ] Ford против Ferrari / Ford v Ferrari [2019 биография BDRip] - Twi7ter Скачать
65 | 1
Ultra HD (UHD: 2K, 4K, 8K) — видео сверхвысокой чёткости [ 17.65 GB ] Ford против Ferrari / Ford v Ferrari [2019 биография UHD BDRip 2160p] DUB +MVO [HDrezka Studio] bober100 Скачать
3 | 0
Фильмы 2019-2020 [DVDrip, WEB-DLRip, HDrip] (DUB, MVO) [ 1.46 GB ] Ford против Ferrari / Ford v Ferrari [2019 биография BDRip] - Twi7ter Скачать
70 | 3
Фильмы [HD 720p, 1080p] (Хороший звук DUB, MVO) [ 12.43 GB ] Ford против Ferrari / Ford v Ferrari [2019 биография BDRip 1080p] DUB +MVO [HDrezka Studio] bober100 Скачать
6 | 0
Фильмы [HD 720p, 1080p] (Хороший звук DUB, MVO) [ 8.6 GB ] Ford против Ferrari / Ford v Ferrari [2019 биография BDRip-HEVC 1080p ] DUB +MVO [HDrezka Studio] bober100 Скачать
6 | 0
Ultra HD (UHD: 2K, 4K, 8K) — видео сверхвысокой чёткости [ 48.2 GB ] Ford против Ferrari / Ford v Ferrari [2019 биография UHD BDRemux 2160p] DUB +MVO [HDrezka Studio] bober100 Скачать
1 | 0
Фильмы 2019-2020 [DVDrip, WEB-DLRip, HDrip] (DUB, MVO) [ 1.46 GB ] Ford против Ferrari / Ford v Ferrari [2019 биография BDRip] MVO [HDRezka Studio] bober100 Скачать
4 | 0

28-11-2019 20:33  

Отключить всю рекламу на сайте

27-01-2020 23:28 Ford против Ferrari Скачать торрент  

Фильм шикарный, да еще с такими актерами, смотрел еще до нового года, выйдет лицуха гляну с удовольствием еще раз.pb.wtf



29-01-2020 06:30 Ford против Ferrari Скачать торрент  

Денвир78 писал(а):

Фильм шикарный, да еще с такими актерами, смотрел еще до нового года, выйдет лицуха гляну с удовольствием еще раз.

Ждем тунца pb.wtf



    Дорогой пользователь! Огромная просьба, поблагодарите релизера, оцените раздачу и оставьте свои комментарий, если Вы скачали Ford против Ferrari через торрент бесплатно! Внесите свою лепту в развитие PiratBit!
    Комментировать посты могут только пользователи прошедшие не сложную регистрацию
    Показать сообщения:    

    Ford против Ferrari через торрент
    Скачать бесплатно Ford против Ferrari
    Ford против Ferrari скачать торрент
    Ford против Ferrari смотреть онлайн
    Cкачать фильм Ford против Ferrari бесплатно
    Ford против Ferrari скачать торрент в хорошем качестве
    Ford против Ferrari смотреть онлайн бесплатно в хорошем качестве


    Вы не можете начинать темы
    Вы не можете отвечать на сообщения
    Вы не можете редактировать свои сообщения
    Вы не можете удалять свои сообщения
    Вы не можете голосовать в опросах
    Вы не можете прикреплять файлы к сообщениям
    Вы можете скачивать файлы