Ссылка на приватное зеркало нашего сайта всего за 1$. Внимание количество ограничено!!!

2 сезон

iTunes

1 сезон

1

iTunes

iTunes

iTunes

1 сезон

RePack

30

ИГРА 18+

pack

ВАЖНО

!!Акция!!

Alien_RageХит недели

RePack

MK11
pack

Забери бонус

RePack

jed

!!Акция!!

Alien_Rage

RePack

fifa19

RePack

Assassins Creed: Odyssey

RePack

NEED FOR SPEED™ PAYBACK

4 сезон

9 сезон

Бесстыжие 9 сезон

Все сериалы

все сериалы на PB.wtf

RePack

FAR CRY 5
  

Горячая точка / Сезон: 1 / Серии: 1-24 из 24 (Денис Карро) [2020, Детектив, драма, криминал, WEBRip] pb.wtf

Горячая точка через торрент pb.wtf

Размер: 14.94 GB | Добавлен: 8 мес. назад | Торрент скачан:45 раз
Скачать  

27-01-2020 20:08 Горячая точка Скачать торрент  

Горячая точка
Год выпуска: 2020
Страна: Россия
Жанр: Детектив, драма, криминал
Продолжительность: ~ 00:50:00
Субтитры: отсутствуют

Режиссер: Денис Карро



В ролях: Арсений Робак, Александр Носик, Ирина Савицкова, Елена Лотова, Олег Каменщиков, Сергей Шарифуллин, Евгений Смирнов-Иваницкий, Джалил Асретов, Вера Новикова, Назир Жуков, Павел Попов, Ирина Лукина (II), Иван Моховиков, Михаил Гудошников, Олег Руденко-Травин, Андрей Колесников (II)

Описание: 2001 год. Женя Мурин возвращается в родной город после 7-летней службы по контракту. Но то, что он увидел, его не обрадовало: бывшая девушка Валя стала наркоманкой, как и большинство молодежи, а мать с отчимом, ветераном афганской войны, ведут отчаянную борьбу за лесопилку, которую стремятся захватить бандиты. Пытаясь решить проблемы семьи, Женя переходит дорогу очень опасным людям и понимает, что недостаточно будет защищать только «своих», со злом нужно бороться в масштабах города. В этой борьбе ему помогают его друзья — следователь местного отделения милиции Эдик и простой работяга на стройке Руслан. Им придется столкнуться не только с бандитами, но и с местной властью, которая находится в сговоре с криминальными авторитетами.

Качество: WEBRip
Формат: AVI

Видео: XviD, ~ 1600 Кбит/с, 720x400
Аудио: 48.0 kHz, AC3 Dolby Digital, 2/0 (L,R) ch, ~ 192 kbps
скриншот  скриншот  скриншот  скриншот  скриншот  

General
Complete name : C:06354Горячая точка.2019 WEB-DLRip. Files-x1. Горячая точка.2019 WEB-DLRip. Files-x.avi
Format : AVI
Format/Info : Audio Video Interleave
File size : 652 MiB
Duration : 50mn 37s
Overall bit rate : 1 801 Kbps
Writing application : VirtualDubMod 1.5.10.3 | www.virtualdub-fr.org || (build 2550/release)
Writing library : VirtualDubMod build 2550/release

Video
ID : 0
Format : MPEG-4 Visual
Format profile : Advanced Simple@L5
Format settings, BVOP : 1
Format settings, QPel : No
Format settings, GMC : No warppoints
Format settings, Matrix : Custom
Codec ID : XVID
Codec ID/Hint : XviD
Duration : 50mn 37s
Bit rate : 1 600 Kbps
Width : 720 pixels
Height : 400 pixels
Display aspect ratio : 16:9
Frame rate : 25.000 fps
Color space : YUV
Chroma subsampling : 4:2:0
Bit depth : 8 bits
Scan type : Progressive
Compression mode : Lossy
Bits/(Pixel*Frame) : 0.222
Stream size : 579 MiB (89%)
Writing library : XviD 73

Audio
ID : 1
Format : AC-3
Format/Info : Audio Coding 3
Mode extension : CM (complete main)
Codec ID : 2000
Duration : 50mn 37s
Bit rate mode : Constant
Bit rate : 192 Kbps
Channel(s) : 2 channels
Channel positions : Front: L R
Sampling rate : 48.0 KHz
Bit depth : 16 bits
Compression mode : Lossy
Stream size : 69.5 MiB (11%)
Alignment : Split accross interleaves
Interleave, duration : 40 ms (1.00 video frame)
Interleave, preload duration : 500 ms

Внимание! Раздача ведётся путём добавления новых серий; при каждом добавлении создаётся новый торрент.
Чтобы начать докачку новой серии, пользователям необходимо сделать следующее:
1. Остановить скачивание;
2. Удалить старый торрент у себя из клиента (старые серии удалять не надо);
3. Скачать новый торрент и запустить его у себя в клиенте вместо старого, при этом указать клиенту путь в старую папку куда и должно происходить скачивание новых серий. Ваш клиент при этом должен произвести хеширование (проверку) старой папки и будет докачивать только те серии, которых у вас ещё нет. Старые серии при этом не удаляются, а продолжают раздаваться! Eсли вы уже удалили старые серии, то предотвратить повторную закачку старых серий можно, отжав галочку в соответствующих местах при запуске нового торрента.
pb.wtf



Скачать Горячая точка через торрент https://i111.fastpic.ru/big/2020/0125/b0/00353335cf101965400bbf45789d6eb0.jpg Скачать фильм Горячая точка через торрент бесплантно в хорошем качестве Описание: 2001 год. Женя Мурин возвращается в родной город после 7-летней службы по контракту. Но то, что он увидел, его не обрадовало: ... 10 10 8
Торрент: Зарегистрирован [2020-02-12 01:33] · скачан: 45 раз
Статус: √ проверено
Размер: 14.94 GB
Как cкачать? Как скачать Горячая точка через торрент | qTorrent

% Раздел Тема Автор DL S | L
Наши сериалы [ 51.01 GB ] Горячая точка / Сезон: 1 / Серии: 1-24 из 24 [2020 WEBRip 1080p] bober100 Скачать
1 | 0
Наши сериалы [ 30.64 GB ] Горячая точка / Сезон: 1 / Серии: 1-24 из 24 [2020 WEBRip 720p] bober100 Скачать
1 | 0
Наши сериалы [ 18.2 GB ] Горячая точка / Сезон: 1 / Серии: 1-24 из 24 [2020 WEBRip-AVC] bober100 Скачать
1 | 0
Наши сериалы [ 14.06 GB ] Горячая точка / Сезон: 1 / Серии: 1-24 из 24 [2020 SATRip] bober100 Скачать
1 | 0

28-11-2019 20:33  

Отключить всю рекламу на сайте

    Дорогой пользователь! Огромная просьба, поблагодарите релизера, оцените раздачу и оставьте свои комментарий, если Вы скачали Горячая точка через торрент бесплатно! Внесите свою лепту в развитие PiratBit!
    Комментировать посты могут только пользователи прошедшие не сложную регистрацию
    Показать сообщения:    

    Горячая точка через торрент
    Скачать бесплатно Горячая точка
    Горячая точка скачать торрент
    Горячая точка смотреть онлайн
    Cкачать фильм Горячая точка бесплатно
    Горячая точка скачать торрент в хорошем качестве
    Горячая точка смотреть онлайн бесплатно в хорошем качестве


    Вы не можете начинать темы
    Вы не можете отвечать на сообщения
    Вы не можете редактировать свои сообщения
    Вы не можете удалять свои сообщения
    Вы не можете голосовать в опросах
    Вы не можете прикреплять файлы к сообщениям
    Вы можете скачивать файлы