Ссылка на приватное зеркало нашего сайта всего за 1$. Внимание количество ограничено!!!

2 сезон

iTunes

1 сезон

1

2 сезон

2 сезон

iTunes

1 сезон

RePack

30

Новинка

ВАЖНО

ИГРА 18+

pack

RePack

MK11
pack

Забери бонус

RePack

jed

!!Акция!!

Alien_Rage

RePack

fifa19

RePack

Assassins Creed: Odyssey

RePack

NEED FOR SPEED™ PAYBACK

4 сезон

9 сезон

Бесстыжие 9 сезон

Все сериалы

все сериалы на PB.wtf

RePack

FAR CRY 5
  

Проксима / Proxima (Алис Винокур) [2019, боевик, драма, WEB-DL 1080p] DUB [iTunes] pb.wtf

Проксима через торрент pb.wtf

Раздают: 1 [ 0 KB/s ]
Размер: 4.13 GB | Добавлен: 7 мес. назад | Торрент скачан:342 раза
Скачать  

28-01-2020 18:30 Проксима Скачать торрент  

Проксима | Proxima
Год выпуска: 2019
Страна: Франция, Германия
Жанр: боевик, драма
Продолжительность: 01:47:19
Перевод: Дублированный | iTunes
Субтитры: Russian (Full)

Режиссер: Алис Винокур

rating

В ролях: Ева Грин, Зели Булан, Мэтт Диллон, Алексей Фатеев, Ларс Айдингер, Сандра Хюллер, Тронд-Эрик Вэссэл, Нэнси Тейт, Грегуар Колен, Игорь Филиппов

Описание: Сара — астронавт, которая проходит подготовку в России для последней экспедиции перед полетом на Марс. Ее партнер по полету Майк помогает ей справиться с запредельными нагрузками и поддерживает эмоционально перед расставанием с дочерью. Старт миссии «Проксима» должен состояться на космодроме Байконур.

Качество: WEB-DL 1080p
Формат: MKV

Видео: AVC, 5126 Kb/s, 1920x1040
Аудио: 48 kHz, AC3 Dolby Digital, 3/2 (L,C,R,l,r) + LFE ch, ~384 kbps | русский
скриншот  скриншот  скриншот  скриншот  

Complete name: Proxima.2019.WEB-DL.1080p.ELEKTRI4KA.UNIONGANG.mkv
Format: Matroska
Format version: Version 4 / Version 2
File size: 4.13 GiB
Duration: 1 h 47 min
Overall bit rate: 5 512 kb/s
Encoded date: UTC 2020-03-30 18:24:28
Writing application: mkvmerge v8.3.0 ('Over the Horizon') 64bit
Writing library: libebml v1.3.1 + libmatroska v1.4.2

Video
ID: 1
Format: AVC
Format/Info: Advanced Video Codec
Format profile: High@L4
Format settings, CABAC: Yes
Format settings, Reference frames: 4 frames
Codec ID: V_MPEG4/ISO/AVC
Duration: 1 h 47 min
Bit rate: 5 126 kb/s
Width: 1 920 pixels
Height: 1 040 pixels
Display aspect ratio: 1.85:1
Frame rate mode: Constant
Frame rate: 24.000 FPS
Color space: YUV
Chroma subsampling: 4:2:0
Bit depth: 8 bits
Scan type: Progressive
Bits/(Pixel*Frame): 0.107
Stream size: 3.84 GiB (93%)
Language: English
Default: Yes
Forced: No
Color range: Limited
Color primaries: BT.709
Transfer characteristics: BT.709
Matrix coefficients: BT.709

Audio
ID: 2
Format: AC-3
Format/Info: Audio Coding 3
Mode extension: CM (complete main)
Format settings, Endianness: Big
Codec ID: A_AC3
Duration: 1 h 47 min
Bit rate mode: Constant
Bit rate: 384 kb/s
Channel(s): 6 channels
Channel positions: Front: L C R, Side: L R, LFE
Sampling rate: 48.0 kHz
Frame rate: 31.250 FPS (1536 spf)
Bit depth: 16 bits
Compression mode: Lossy
Stream size: 295 MiB (7%)
Title: iTunes
Language: Russian
Default: Yes
Forced: No

Text
ID: 3
Format: UTF-8
Codec ID: S_TEXT/UTF8
Codec ID/Info: UTF-8 Plain Text
Duration: 1 h 41 min
Bit rate: 63 b/s
Count of elements: 949
Stream size: 47.3 KiB (0%)
Title: Full
Language: Russian
Default: Yes
Forced: No

Menu
00:00:00.000: en:Глава 1
00:05:58.041: en:Глава 2
00:11:41.499: en:Глава 3
00:18:07.707: en:Глава 4
00:27:12.372: en:Глава 5
00:35:59.663: en:Глава 6
00:44:57.704: en:Глава 7
00:51:49.329: en:Глава 8
00:56:44.120: en:Глава 9
01:03:22.203: en:Глава 10
01:10:36.078: en:Глава 11
01:15:40.203: en:Глава 12
01:21:22.453: en:Глава 13
01:27:58.410: en:Глава 14
01:33:52.951: en:Глава 15
01:41:05.117: en:Глава 16

pb.wtf



Скачать Проксима через торрент https://a.radikal.ru/a23/2001/08/c435a59c3bdb.jpg Скачать фильм Проксима через торрент бесплантно в хорошем качестве Описание: Сара — астронавт, которая проходит подготовку в России для последней экспедиции перед полетом на Марс. Ее партнер по полету Майк ... 10 10 14
Info! Золотая раздача, скачанное не засчитывается.
Торрент: Зарегистрирован [2020-03-30 19:13] · скачан: 342 раз
Статус: √ проверено
Размер: 4.13 GB
Как cкачать? Как скачать Проксима через торрент | qTorrent

% Раздел Тема Автор DL S | L
Фильмы 2019-2020 [DVDrip, WEB-DLRip, HDrip] (DUB, MVO) [ 708 MB ] Проксима / Proxima [2019 WEB-DLRip ""] coc900 Скачать
2 | 0
Фильмы 2019-2020 [DVDrip, WEB-DLRip, HDrip] (DUB, MVO) [ 1.46 GB ] Проксима / Proxima [2019 WEB-DLRip] bober100 Скачать
2 | 0
Фильмы (WEB-DL 720p, 1080p) [ 3.28 GB ] Проксима / Proxima [2019 WEB-DL 720p] bober100 Скачать
2 | 0

28-11-2019 20:33  

Отключить всю рекламу на сайте

03-08-2020 20:32 Проксима Скачать торрент  

Качественный фильм про подготовку к полёту в космос, интересная история про женщину-астронавта.
Кино посвящается женщинам космонавтам - астронавтам.pb.wtf



    Дорогой пользователь! Огромная просьба, поблагодарите релизера, оцените раздачу и оставьте свои комментарий, если Вы скачали Проксима через торрент бесплатно! Внесите свою лепту в развитие PiratBit!
    Комментировать посты могут только пользователи прошедшие не сложную регистрацию
    Показать сообщения:    

    Проксима через торрент
    Скачать бесплатно Проксима
    Проксима скачать торрент
    Проксима смотреть онлайн
    Cкачать фильм Проксима бесплатно
    Проксима скачать торрент в хорошем качестве
    Проксима смотреть онлайн бесплатно в хорошем качестве


    Вы не можете начинать темы
    Вы не можете отвечать на сообщения
    Вы не можете редактировать свои сообщения
    Вы не можете удалять свои сообщения
    Вы не можете голосовать в опросах
    Вы не можете прикреплять файлы к сообщениям
    Вы можете скачивать файлы